ЛЕГО Фильм 2 в 3Д / The Lego Movie 2: The Second Part 3D (Майк Митчелл / Mike Mitchell) [2019, мультфильм, мюзикл, фэнтези, боевик, комедия, приключения, семейный, BDRip, 1080p] OverUnder / Вертикальная стереопара

Страницы:  1

Ответить
Автор
Сообщение

SeRoGa00

Top Seed 02* 80r

Стаж: 9 лет 2 месяца

Сообщений: 754

SeRoGa00 · 08-Май-19 16:30 (2 месяца 11 дней назад, ред. 16-Май-19 05:17)

ЛЕГО Фильм 2 / The Lego Movie 2: The Second Part
Год выпуска: 2019
Страна: Дания, Норвегия, Австралия, США (Warner Animation Group, LEGO System A/S, Rideback, Lord Miller, Vertigo Entertainment)
Жанр: мультфильм, мюзикл, фэнтези, боевик, комедия, приключения, семейный
Продолжительность: 01:47:10
Перевод: Профессиональный дублированный(iTunes)
Русские субтитры: нет
Режиссер: Майк Митчелл / Mike Mitchell
Роли озвучивали: Крис Прэтт, Элизабет Бэнкс, Уилл Арнетт, Тиффани Хэддиш, Стефани Беатриз, Элисон Бри, Ник Офферман, Чарли Дэй, Майя Рудольф, Уилл Феррелл
Описание: Прошло пять лет с тех пор, как все было прекрасно, и теперь жители пластмассового мира столкнулись с новой невероятной угрозой — вторженцами LEGO DUPLO®, прибывшими из космоса и разрушающими всё на своем пути куда быстрее, чем герои могут построить вновь. В результате жёлтым человечкам приходится жить в мрачной постапокалиптике, но Эммет этого не замечает и продолжает радоваться жизни. Однажды появляется неуязвимый корабль-разведчик и утаскивает с собой выдающихся, по его мнению, героев — Люсю в том числе. Чтобы спасти друзей и восстановить гармонию во вселенной ЛЕГО, Эммет отправляется в необыкновенную галактику, где правит постоянно меняющая форму Королева, и всегда царит музыка.
Сэмпл: http://sendfile.su/1493259
Качество: BDrip
Контейнер: MKV
Формат 3D: OverUnder / Вертикальная стереопара
Порядок ракурсов: левый ракурс первый
Видео кодек: x264
Аудио кодек: AC3
Видео: AVC / [email protected] / 23,976 fps / 1920х2160 / 12.7 Мбит/сек
Аудио: Русский / AC3 / 48 KHz / 5.1 ch / 384 Кбит/сек(iTunes)
Аудио 2: Английский / AC3 / 48 KHz / 5.1 ch / 640 Кбит/сек
ВНИМАНИЕ ! На встроенных ТВ-плеерах работать не будет!!!
ТВ Samsung в названии которого есть надпись Ultra HD , и LG Ultra HD 800 серии, LG C6P, Xiaomi Mi TV 2 воспроизводят полные стереопары встроенными плеерами
Железные плееры на которых воспроизводятся полные стереопары:Popcorn C-200 , Dune HD Smart D1 , Dune HD DUO , Dune HD Smart H1 , Dune HD Smart B1 , Dune HD Max , Dune HD TV-303D, Dune HD TV-102, Dune HD Base 3D, Philips HMP7001, Aura HD, MECOOL BB2
Чтобы изображение было на весь экран в плеере выставляем, если рип 1920х1600 - то выставляем 2.35:1 , если 1920х2160 - то выставляем 16:9
MediaInfo
General
Уникальный идентификатор : 194053014759593203984415527804371704808 (0x91FD404E255A06E2BB5F9BD0601F9BE8)
Полное имя : F:\закачки\The Lego Movie 2 The Second Part.Rip by SeRoGa00.mkv
Формат : Matroska
Версия формата : Version 2
Размер файла : 10.5 GiB
Продолжительность : 1h 47mn
Общий поток : 14.0 Mbps
Дата кодирования : UTC 2019-05-08 02:51:36
Программа кодирования : mkvmerge v3.4.0 ('Rapunzel') сборка от May 15 2010 09:38:20
Библиотека кодирования : libebml v0.8.0 + libmatroska v0.9.0
Video
Идентификатор : 1
Формат : AVC
Формат/Информация : Advanced Video Codec
Профиль формата : [email protected]
Параметр CABAC формата : Yes
Параметр ReFrames формата : 4 frames
Идентификатор кодека : V_MPEG4/ISO/AVC
Продолжительность : 1h 47mn
Битрейт : 12.7 Mbps
Ширина : 1 920 pixels
Высота : 2 160 pixels
Соотношение сторон : 0.889
Частота кадров : 23.976 fps
Цветовое пространство : YUV
Субдискретизация насыщенности : 4:2:0
Битовая глубина : 8 bits
Тип развёртки : Progressive
Бит/(Пиксели*Кадры) : 0.127
Размер потока : 9.49 GiB (91%)
Заголовок : Rip by SeRoGa00
Библиотека кодирования : x264 core 155 r2901 7d0ff22
Настройки программы : cabac=1 / ref=4 / deblock=1:-3:-3 / analyse=0x3:0x113 / me=umh / subme=10 / psy=1 / psy_rd=1.00:0.15 / mixed_ref=1 / me_range=24 / chroma_me=1 / trellis=2 / 8x8dct=1 / cqm=0 / deadzone=21,11 / fast_pskip=1 / chroma_qp_offset=-3 / threads=18 / lookahead_threads=6 / sliced_threads=0 / nr=0 / decimate=0 / interlaced=0 / bluray_compat=0 / constrained_intra=0 / bframes=10 / b_pyramid=2 / b_adapt=2 / b_bias=0 / direct=3 / weightb=1 / open_gop=0 / weightp=2 / keyint=250 / keyint_min=23 / scenecut=40 / intra_refresh=0 / rc_lookahead=60 / rc=crf / mbtree=1 / crf=16.5 / qcomp=0.60 / qpmin=10 / qpmax=69 / qpstep=4 / vbv_maxrate=40000 / vbv_bufsize=40000 / crf_max=0.0 / nal_hrd=none / filler=0 / ip_ratio=1.40 / aq=1:1.00
Язык : English
Default : No
Forced : No
Audio #1
Идентификатор : 2
Формат : AC-3
Формат/Информация : Audio Coding 3
Расширение режима : CM (complete main)
Параметр Endianness формата : Big
Идентификатор кодека : A_AC3
Продолжительность : 1h 47mn
Вид битрейта : Constant
Битрейт : 384 Kbps
Каналы : 6 channels
Расположение каналов : Front: L C R, Side: L R, LFE
Частота : 48.0 KHz
Битовая глубина : 16 bits
Метод сжатия : Lossy
Размер потока : 295 MiB (3%)
Язык : Russian
Default : Yes
Forced : No
Audio #2
Идентификатор : 3
Формат : AC-3
Формат/Информация : Audio Coding 3
Расширение режима : CM (complete main)
Параметр Endianness формата : Big
Идентификатор кодека : A_AC3
Продолжительность : 1h 47mn
Вид битрейта : Constant
Битрейт : 640 Kbps
Каналы : 6 channels
Расположение каналов : Front: L C R, Side: L R, LFE
Частота : 48.0 KHz
Битовая глубина : 16 bits
Метод сжатия : Lossy
Размер потока : 491 MiB (5%)
Язык : English
Default : No
Forced : No
Menu
00:00:00.000 : en:Chapter 01
00:04:15.881 : en:Chapter 02
00:12:35.046 : en:Chapter 03
00:15:09.951 : en:Chapter 04
00:21:57.733 : en:Chapter 05
00:29:50.330 : en:Chapter 06
00:36:22.680 : en:Chapter 07
00:44:47.977 : en:Chapter 08
00:50:50.506 : en:Chapter 09
00:57:05.255 : en:Chapter 10
01:01:07.163 : en:Chapter 11
01:09:48.351 : en:Chapter 12
01:17:31.939 : en:Chapter 13
01:21:58.122 : en:Chapter 14
01:26:49.538 : en:Chapter 15
01:34:06.266 : en:Chapter 16
01:38:30.571 : en:Chapter 17
Скриншоты
Download
Для скачивания .torrent файлов необходима регистрация
Сайт не распространяет и не хранит электронные версии произведений, а лишь предоставляет доступ к создаваемому пользователями каталогу ссылок на торрент-файлы, которые содержат только списки хеш-сумм
[Профиль]  [ЛС] 

Дядя_Черномор

Стаж: 10 лет 8 месяцев

Сообщений: 34

Дядя_Черномор · 10-Май-19 18:12 (спустя 2 дня 1 час)

скажите, пожалуйста, будет ли заметна разница глазу между полной стереопарой и анаморфной, если смотреть с компа на 40" телевизоре (активные очки).
[Профиль]  [ЛС] 

kamehob

Стаж: 6 лет 9 месяцев

Сообщений: 1172


kamehob · 10-Май-19 22:06 (спустя 3 часа)

Дядя_Черномор писал(а):
77348492будет ли заметна разница глазу
Глаза у всех разные.
[Профиль]  [ЛС] 

Дядя_Черномор

Стаж: 10 лет 8 месяцев

Сообщений: 34

Дядя_Черномор · 10-Май-19 23:18 (спустя 1 час 11 мин.)

kamehob писал(а):
Глаза у всех разные.
да это понятно. вопрос в том, как это будет выдавать сам ТВ. плеер на компе по сути урежет разрешение вдвое из-за масштабирования и мне не понятно какую картинку получит в итоге телик, аналогичную анаморфной стереопаре или информация о кадре будет полной?
[Профиль]  [ЛС] 

lflflfgoga

Стаж: 9 лет 7 месяцев

Сообщений: 6

lflflfgoga · 05-Июн-19 00:06 (спустя 25 дней)

Дядя_Черномор
будет полной. Я сам долгое время обладаю 3д телеком самсунг на 55 дюймов и года с 3 всегда качал "анаморфные стерео пары" ибо думал, что полные стерепопары телек через флеху не поддреживает что по сути является правдой а танцы с бубнами насчет прог которые позволят через пк смотреть полные пары меня не устраивают поэтому ищу блю-рей 3д фильмы и через флеху без железных дорогих блю-рей проигрывателей напрямую смотрю, качество на 3 головы выше по сравнению с анаморфными парами и на 1,5 головы по сравнению с полными стереопарами. Кста уже научился смотреть через пк полные пары, но их качаю когда нету 3д блю рея на торентах, анаморфные уже вообще не смотрю, к хорошему быстро привыкаешь)
[Профиль]  [ЛС] 

Karen92

Стаж: 11 лет 5 месяцев

Сообщений: 34


Karen92 · 16-Июн-19 21:03 (спустя 11 дней)

а BD3D версии мультика нет в сети?
[Профиль]  [ЛС] 
 
Ответить
Loading...
Error