Нанга-Парбат в 3Д / Nanga Parbat 3D (Йозеф Фильсмайер / Joseph Vilsmaier) [2010, драма, биография, альпинизм, BDRip] VO (Чадов), Half OverUnder / Вертикальная анаморфная стереопара

Страницы:  1

Ответить
Автор
Сообщение

Ash61

Top Seed 04* 320r

Стаж: 10 лет 7 месяцев

Сообщений: 5004

Ash61 · 21-Апр-19 16:21 (2 месяца 28 дней назад, ред. 21-Апр-19 17:00)

Нанга-Парбат
Nanga Parbat

Год выпуска: 2010
Страна: Германия
Жанр: драма, биография, альпинизм
Продолжительность: 01:43:43
Перевод: Одноголосый закадровый (Михаил Чадов - "Переулок Переводмана") (перевод - Алексей Дмитриев)
Режиссер: Йозеф Фильсмайер / Joseph Vilsmaier
В ролях: Флориан Штеттер (Райнхольд Месснер), Андреас Тобиаш (Гюнтер Месснер), Карл Маркович (Карл Херрлигкоффер), Штеффен Шрёдер (Феликс Кюн), Юле Ронштедт (Alice von Hobe), Фолькер Брух (Герд Бауэр), Себастиан Беццель (Петер Шольц), Михаэль Кранц (Ханс Салер), Лена Штольце (мама Месснер), Хорст Куммет (папа Месснер), Маркус Кроер (Райнхольд Месснер в юности), Лоренцо Недис (Гюнтер Месснер в юности), Маттиас Хабих (пастор), Александер Хельд (Dr. Franz Burda)
Описание: История жизни братьев Месснер и, главным образом, их восхождения на вершину Кашмирской долины Гималаев 1970 году. Претерпев неимоверные лишения, тяжёлые физические травмы, на грани истощения, Рейнгольд и Гюнтер достигнут роковой высоты и только тогда до конца осознают, что именно спуск с гор может стоить им жизни.
Вернувшись Рейнгольд Месснер расскажет, что потерял младшего брата из виду спускаясь по западному склону горы Нанга-Парбат, что почти наверняка Гюнтер был сметён лавиной. Свидетели же станут утверждать, что Месснер пожертвовал братом ради своих амбиций: оставил больного Гюнтера для спуска по неизведанному маршруту. Рейнгольд Месснер попробует судиться с коллегами, отправиться на поиски тела брата, совершит ещё не одно выдающееся восхождение, но навсегда останется в тени того трагического происшествия. И только спустя 35 лет одна из великих тайн в истории альпинизма будет раскрыта…

Доп. инфо: Несмотря на то, что это довольно низкобюджетная студийная конвертация в 3Д, 3Д смотрится довольно эффектно, значительно приятнее большинства высокобюджетных 3Д фильмов.
Премьера (мир): 14 января 2010
Бюджет: €7 000 000

. .

Качество: BDRip (by Ash61)
Контейнер: MKV
Формат 3D: Half OverUnder / Вертикальная анаморфная стереопара
Порядок ракурсов: левый ракурс первый
Видео: AVC / 1920х1080p / 23,976 fps / 10.0 Mbps
Аудио:
#1 - Русский / AC3 / 48 KHz / 5.1 ch / 448 Kbps (VO - М.Чадов)
#2 - Немецкий / AC3 / 48 KHz / 5.1 ch / 640 Kbps (Original - BD 2D 24.000 fps)
#3 - Английский / AC3 / 48 KHz / 5.1 ch / 640 Kbps (Dubbing - HDTV)
Субтитры (SRT):
Вшитые (softsub):
#1 - Русские Форсированные [Ash61] (включены по умолчанию)
#2 - Русские SDH (перевод МСВ, редакция Ash61 [v.2])
#3 - German Full
#4 - English Full
Внешние (UTF-8):
#1 - Русские Форсированные [Ash61] (включены по умолчанию)
#2 - Русские SDH (перевод МСВ, редакция Ash61 [v.1])
MediaInfo
General
Unique ID : 243312047972845876196136101778943334669 (0xB70C3226A3FE4EB29135FC79CC47590D)
Complete name : J:\NangaParbat(2010)3D-HOU(Ash61)VO\NangaParbat(2010)3D-HOU(Ash61)VO.mkv
Format : Matroska
Format version : Version 2
File size : 8.50 GiB
Duration : 1h 43mn
Overall bit rate : 11.7 Mbps
Movie name : Нанга-Парбат / Nanga Parbat (2010) in 3D
Encoded date : UTC 2019-04-21 11:47:45
Writing application : mkvmerge v5.8.0 ('No Sleep / Pillow') built on Sep 2 2012 15:37:04
Writing library : libebml v1.2.3 + libmatroska v1.3.0
Video
ID : 1
Format : AVC
Format/Info : Advanced Video Codec
Format profile : [email protected]
Format settings, CABAC : Yes
Format settings, ReFrames : 4 frames
Codec ID : V_MPEG4/ISO/AVC
Duration : 1h 43mn
Bit rate : 10 000 Kbps
Width : 1 920 pixels
Height : 1 080 pixels
Display aspect ratio : 16:9
Frame rate mode : Constant
Frame rate : 23.976 (24000/1001) fps
Color space : YUV
Chroma subsampling : 4:2:0
Bit depth : 8 bits
Scan type : Progressive
Bits/(Pixel*Frame) : 0.201
Stream size : 7.07 GiB (83%)
Title : BDRip by Ash61
Writing library : x264 core 146 r2538 121396c
Encoding settings : cabac=1 / ref=4 / deblock=1:-3:-3 / analyse=0x3:0x113 / me=umh / subme=10 / psy=1 / psy_rd=1.00:0.00 / mixed_ref=1 / me_range=32 / chroma_me=1 / trellis=2 / 8x8dct=1 / cqm=0 / deadzone=21,11 / fast_pskip=0 / chroma_qp_offset=-2 / threads=12 / lookahead_threads=3 / sliced_threads=0 / nr=0 / decimate=0 / interlaced=0 / bluray_compat=0 / constrained_intra=0 / bframes=12 / b_pyramid=2 / b_adapt=2 / b_bias=0 / direct=3 / weightb=1 / open_gop=0 / weightp=2 / keyint=250 / keyint_min=23 / scenecut=40 / intra_refresh=0 / rc_lookahead=60 / rc=2pass / mbtree=0 / bitrate=10000 / ratetol=1.0 / qcomp=0.70 / qpmin=0 / qpmax=69 / qpstep=4 / cplxblur=20.0 / qblur=0.5 / vbv_maxrate=40000 / vbv_bufsize=30000 / nal_hrd=none / filler=0 / frame-packing=4 / ip_ratio=1.40 / pb_ratio=1.30 / aq=1:0.70
Language : German
Default : Yes
Forced : No
Audio #1
ID : 2
Format : AC-3
Format/Info : Audio Coding 3
Mode extension : CM (complete main)
Format settings, Endianness : Big
Codec ID : A_AC3
Duration : 1h 43mn
Bit rate mode : Constant
Bit rate : 448 Kbps
Channel(s) : 6 channels
Channel positions : Front: L C R, Side: L R, LFE
Sampling rate : 48.0 KHz
Frame rate : 31.250 fps (1536 spf)
Compression mode : Lossy
Stream size : 333 MiB (4%)
Title : Одноголосый закадровый - Михаил Чадов (Перевод - Алексей Дмитриев)
Language : Russian
Default : Yes
Forced : No
Audio #2
ID : 3
Format : AC-3
Format/Info : Audio Coding 3
Mode extension : CM (complete main)
Format settings, Endianness : Big
Codec ID : A_AC3
Duration : 1h 43mn
Bit rate mode : Constant
Bit rate : 640 Kbps
Channel(s) : 6 channels
Channel positions : Front: L C R, Side: L R, LFE
Sampling rate : 48.0 KHz
Frame rate : 31.250 fps (1536 spf)
Compression mode : Lossy
Stream size : 475 MiB (5%)
Title : Original (source - BD 2D 24.000 fps) (adapted for 23.976 fps)
Language : German
Default : No
Forced : No
Audio #3
ID : 4
Format : AC-3
Format/Info : Audio Coding 3
Mode extension : CM (complete main)
Format settings, Endianness : Big
Codec ID : A_AC3
Duration : 1h 43mn
Bit rate mode : Constant
Bit rate : 640 Kbps
Channel(s) : 6 channels
Channel positions : Front: L C R, Side: L R, LFE
Sampling rate : 48.0 KHz
Frame rate : 31.250 fps (1536 spf)
Compression mode : Lossy
Stream size : 475 MiB (5%)
Title : Dubbing (HDTV, source - BD 3D Remux)
Language : English
Default : No
Forced : No
Text #1
ID : 5
Format : UTF-8
Codec ID : S_TEXT/UTF8
Codec ID/Info : UTF-8 Plain Text
Title : Форсированные [Ash61]
Language : Russian
Default : Yes
Forced : No
Text #2
ID : 6
Format : UTF-8
Codec ID : S_TEXT/UTF8
Codec ID/Info : UTF-8 Plain Text
Title : SDH (перевод МСВ)
Language : Russian
Default : No
Forced : No
Text #3
ID : 7
Format : UTF-8
Codec ID : S_TEXT/UTF8
Codec ID/Info : UTF-8 Plain Text
Title : Full
Language : German
Default : No
Forced : No
Text #4
ID : 8
Format : UTF-8
Codec ID : S_TEXT/UTF8
Codec ID/Info : UTF-8 Plain Text
Title : Full
Language : English
Default : No
Forced : No
Для оценки 3Д - Анимированные скрины















Download
Для скачивания .torrent файлов необходима регистрация
Сайт не распространяет и не хранит электронные версии произведений, а лишь предоставляет доступ к создаваемому пользователями каталогу ссылок на торрент-файлы, которые содержат только списки хеш-сумм
[Профиль]  [ЛС] 

airbox

Стаж: 11 лет 7 месяцев

Сообщений: 276


airbox · 25-Апр-19 12:41 (спустя 3 дня)

Цитата:
Доп. инфо: Несмотря на то, что это довольно низкобюджетная студийная конвертация в 3Д, 3Д смотрится довольно эффектно, значительно приятнее большинства высокобюджетных 3Д фильмов.
У немцев ещё 10 лет назад был интересный софт для конвертации на основе создания карт глубины.
Филипс для многомерного подобное продвигал, но потом забросили.
[Профиль]  [ЛС] 
 
Ответить
Loading...
Error