Рапунцель: Запутанная история в 3Д / Tangled 3D (Нэйтан Грено / Nathan Greno) [2010, мультфильм, мюзикл, фэнтези, мелодрама, комедия, семейный, BDRip, 1080p] OverUnder / Вертикальная стереопара

Страницы:  1

Ответить
Автор
Сообщение

SeRoGa00

Top Seed 02* 80r

Стаж: 9 лет 2 месяца

Сообщений: 754

SeRoGa00 · 04-Апр-19 17:25 (3 месяца 15 дней назад, ред. 05-Апр-19 12:29)

Рапунцель: Запутанная история / Tangled
Год выпуска: 2010
Страна: США (Walt Disney Pictures)
Жанр: мультфильм, мюзикл, фэнтези, мелодрама, комедия, семейный
Продолжительность: 01:40:16
Перевод: Профессиональный дублированный(Лицензия)
Русские субтитры: нет
Режиссеры: Нэйтан Грено / Nathan Greno, Байрон Ховард / Byron Howard
В ролях: Мэнди Мур, Закари Левай, Донна Мерфи, Рон Перлман, М. К. Гейни, Джеффри Тэмбор, Брэд Гэррет, Пол Ф. Томпкинс, Ричард Кил, Делани Роуз Стейн
Описание: Обаятельный разбойник Флинн путешествует по жизни с легкостью, лишь потому, что он красив, болтлив и удачлив. И, казалось, фортуна всегда на его стороне, пока однажды он не выбирает высокую башню в густой чаще леса в качестве «спокойного» убежища. Флинн оказывается связанным по рукам и ногам юной красавицей по имени Рапунцель.
Если вы думаете, что самое интересное в ней — это 21 метр волшебных золотистых волос, то вы заблуждаетесь! Запертая в башне и отчаянно ищущая приключений, Рапунцель решает использовать Флинна в качестве билета в большой мир. Сначала комичное похищение, затем невинный шантаж — и вот наши герои на воле. Вместе с главными героями в авантюрное путешествие отправятся бравый конь-ищейка Максимус, ручной хамелеон и шайка сумасбродных разбойников.
Сэмпл: http://sendfile.su/1486623
Качество: BDrip
Контейнер: MKV
Формат 3D: OverUnder / Вертикальная стереопара
Порядок ракурсов: левый ракурс первый
Видео кодек: x264
Аудио кодек: AC3
Видео: AVC / [email protected] / 23,976 fps / 1920х2160 / 14,5 Мбит/сек
Аудио: Русский / AC3 / 48 KHz / 5.1 ch / 640 Кбит/сек (Лицензия)
Аудио 2: Английский / AC3 / 48 KHz / 5.1 ch / 640 Кбит/сек
ВНИМАНИЕ ! На встроенных ТВ-плеерах работать не будет!!!
ТВ Samsung в названии которого есть надпись Ultra HD , и LG Ultra HD 800 серии, LG C6P, Xiaomi Mi TV 2 воспроизводят полные стереопары встроенными плеерами
Железные плееры на которых воспроизводятся полные стереопары:Popcorn C-200 , Dune HD Smart D1 , Dune HD DUO , Dune HD Smart H1 , Dune HD Smart B1 , Dune HD Max , Dune HD TV-303D, Dune HD TV-102, Dune HD Base 3D, Philips HMP7001, Aura HD, MECOOL BB2
Чтобы изображение было на весь экран в плеере выставляем, если рип 1920х1600 - то выставляем 2.35:1 , если 1920х2160 - то выставляем 16:9
MediaInfo
Общее
Уникальный идентификатор : 233419623244771860079852305898319229642 (0xAF9AFBF4A0A35314A318539431A5B2CA)
Полное имя : F:\закачки\Tangleds.Rip by SeRoGa00.mkv
Формат : Matroska
Версия формата : Version 2
Размер файла : 11,3 Гбайт
Продолжительность : 1 ч. 40 м.
Общий поток : 16,1 Мбит/сек
Дата кодирования : UTC 2019-04-02 14:17:36
Программа кодирования : mkvmerge v3.4.0 ('Rapunzel') сборка от May 15 2010 09:38:20
Библиотека кодирования : libebml v0.8.0 + libmatroska v0.9.0
Видео
Идентификатор : 1
Формат : AVC
Формат/Информация : Advanced Video Codec
Профиль формата : [email protected]
Параметр CABAC формата : Да
Параметр ReFrames формата : 4 кадра
Идентификатор кодека : V_MPEG4/ISO/AVC
Продолжительность : 1 ч. 40 м.
Битрейт : 14,5 Мбит/сек
Ширина : 1920 пикселей
Высота : 2160 пикселей
Соотношение сторон : 0,889
Частота кадров : 23,976 кадра/сек
Цветовое пространство : YUV
Субдискретизация насыщенности : 4:2:0
Битовая глубина : 8 бит
Тип развёртки : Прогрессивная
Бит/(Пиксели*Кадры) : 0.146
Размер потока : 10,2 Гбайт (90%)
Заголовок : Rip by SeRoGa00
Библиотека кодирования : x264 core 155 r2901 7d0ff22
Настройки программы : cabac=1 / ref=4 / deblock=1:-3:-3 / analyse=0x3:0x113 / me=umh / subme=10 / psy=1 / psy_rd=1.00:0.15 / mixed_ref=1 / me_range=24 / chroma_me=1 / trellis=2 / 8x8dct=1 / cqm=0 / deadzone=21,11 / fast_pskip=1 / chroma_qp_offset=-3 / threads=18 / lookahead_threads=6 / sliced_threads=0 / nr=0 / decimate=0 / interlaced=0 / bluray_compat=0 / constrained_intra=0 / bframes=10 / b_pyramid=2 / b_adapt=2 / b_bias=0 / direct=3 / weightb=1 / open_gop=0 / weightp=2 / keyint=250 / keyint_min=23 / scenecut=40 / intra_refresh=0 / rc_lookahead=60 / rc=crf / mbtree=1 / crf=16.5 / qcomp=0.60 / qpmin=10 / qpmax=69 / qpstep=4 / vbv_maxrate=40000 / vbv_bufsize=40000 / crf_max=0.0 / nal_hrd=none / filler=0 / ip_ratio=1.40 / aq=1:1.00
Язык : English
Default : Нет
Forced : Нет
Аудио #1
Идентификатор : 2
Формат : AC-3
Формат/Информация : Audio Coding 3
Расширение режима : CM (complete main)
Параметр Endianness формата : Big
Идентификатор кодека : A_AC3
Продолжительность : 1 ч. 40 м.
Вид битрейта : Постоянный
Битрейт : 640 Кбит/сек
Каналы : 6 каналов
Расположение каналов : Front: L C R, Side: L R, LFE
Частота : 48,0 КГц
Битовая глубина : 16 бит
Метод сжатия : С потерями
Размер потока : 459 Мбайт (4%)
Язык : Russian
Default : Да
Forced : Нет
Аудио #2
Идентификатор : 3
Формат : AC-3
Формат/Информация : Audio Coding 3
Расширение режима : CM (complete main)
Параметр Endianness формата : Big
Идентификатор кодека : A_AC3
Продолжительность : 1 ч. 40 м.
Вид битрейта : Постоянный
Битрейт : 640 Кбит/сек
Каналы : 6 каналов
Расположение каналов : Front: L C R, Side: L R, LFE
Частота : 48,0 КГц
Битовая глубина : 16 бит
Метод сжатия : С потерями
Размер потока : 459 Мбайт (4%)
Язык : English
Default : Нет
Forced : Нет
Меню
00:00:00.000 : en:00:00:00.000
00:08:20.290 : en:00:08:20.290
00:15:42.607 : en:00:15:42.607
00:24:40.561 : en:00:24:40.561
00:34:41.496 : en:00:34:41.496
00:42:30.213 : en:00:42:30.213
00:50:25.271 : en:00:50:25.271
00:59:21.266 : en:00:59:21.266
01:10:34.979 : en:01:10:34.979
01:19:22.756 : en:01:19:22.756
01:25:21.365 : en:01:25:21.365
01:31:20.224 : en:01:31:20.224
Скриншоты
Download
Для скачивания .torrent файлов необходима регистрация
Сайт не распространяет и не хранит электронные версии произведений, а лишь предоставляет доступ к создаваемому пользователями каталогу ссылок на торрент-файлы, которые содержат только списки хеш-сумм
[Профиль]  [ЛС] 

SergeyVolf

Стаж: 9 лет 2 месяца

Сообщений: 377


SergeyVolf · 05-Апр-19 08:30 (спустя 15 часов)

В английском названии буква "s" в конце лишняя.
[Профиль]  [ЛС] 
 
Ответить
Loading...
Error