Хроники хищных городов в 3Д / Mortal Engines 3D (Кристиан Риверс / Christian Rivers) [2018, Фантастика, фэнтези, боевик, триллер, приключения, BDRip, 1080p] OverUnder / Вертикальная стереопара

Страницы:  1

Ответить
Автор
Сообщение

SeRoGa00

Top Seed 02* 80r

Стаж: 9 лет 2 месяца

Сообщений: 754

SeRoGa00 · 02-Апр-19 16:33 (3 месяца 17 дней назад, ред. 12-Апр-19 16:36)

Хроники хищных городов / Mortal Engines
Год выпуска: 2018
Страна: Новая Зеландия, США (Media Rights Capital (MRC), Scholastic Productions, Silvertongue Films)
Жанр: Фантастика, фэнтези, боевик, триллер, приключения
Продолжительность: 02:08:21
Перевод: Профессиональный дублированный (лицензия)
Русские субтитры: нет
Режиссер: Кристиан Риверс / Christian Rivers
В ролях: Гера Хилмарсдоттир, Роберт Шиэн, Хьюго Уивинг, Джихе, Ронан Рафтери, Лейла Джордж, Патрик Мэлахайд, Стивен Лэнг, Колин Сэлмон, Марк Митчинсон, Меник Гунератне, Реге Пейдж, Фрэнки Адамс, Лейфур Сигурдарсон, Кан Уэст, Эндрю Лииз, Ки Чан, Сара Пирс, Марк Хэдлоу, Карен Писториус, Поппи Маклеод, Джоэл Тобек, Йосон Ан
Описание: Прошли тысячелетия после того, как мир настиг апокалипсис. Человечество адаптировалось и теперь живет по новым правилам. Гигантские движущиеся мегаполисы рассекают пустоши и поглощают маленькие города ради ресурсов. Том Нэтсуорти из нижнего уровня великого Лондона оказывается в смертельной опасности, когда на его пути появляется скрывающаяся от закона бунтарка Эстер Шоу. Они не должны были встретиться, но им суждено изменить будущее.
Сэмпл: http://sendfile.su/1488312
Качество: BDrip
Контейнер: MKV
Формат 3D: OverUnder / Вертикальная стереопара
Порядок ракурсов: левый ракурс первый
Видео кодек: x264
Аудио кодек: AC3
Видео: AVC / [email protected] / 23,976 fps / 1920х2160 / 17,6 Мбит/сек
Аудио: Русский / AC3 / 48 KHz / 5.1 ch / 640 Кбит/сек(лицензия)
Аудио 2: Английский / AC3 / 48 KHz / 5.1 ch / 448 Кбит/сек
ВНИМАНИЕ ! На встроенных ТВ-плеерах работать не будет!!!
ТВ Samsung в названии которого есть надпись Ultra HD , и LG Ultra HD 800 серии, LG C6P, Xiaomi Mi TV 2 воспроизводят полные стереопары встроенными плеерами
Железные плееры на которых воспроизводятся полные стереопары:Popcorn C-200 , Dune HD Smart D1 , Dune HD DUO , Dune HD Smart H1 , Dune HD Smart B1 , Dune HD Max , Dune HD TV-303D, Dune HD TV-102, Dune HD Base 3D, Philips HMP7001, Aura HD, MECOOL BB2
Чтобы изображение было на весь экран в плеере выставляем, если рип 1920х1600 - то выставляем 2.35:1 , если 1920х2160 - то выставляем 16:9
12.04.2019. Релиз обновлён. Русская звуковая дорожка iTunes заменена на лицензию.
Желающие, скачайте заново торрент-файл.
MediaInfo
Общее
Уникальный идентификатор : 179170237395859523802784769416139644577 (0x86CAEEBA927A778A960CDFB6F2C01EA1)
Полное имя : E:\фильмы\Mortal Engines.Rip by SeRoGa00.mkv
Формат : Matroska
Версия формата : Version 2
Размер файла : 17,1 Гбайт
Продолжительность : 2 ч. 8 м.
Общий поток : 19,0 Мбит/сек
Дата кодирования : UTC 2019-04-12 02:16:02
Программа кодирования : mkvmerge v3.4.0 ('Rapunzel') сборка от May 15 2010 09:38:20
Библиотека кодирования : libebml v0.8.0 + libmatroska v0.9.0
Видео
Идентификатор : 1
Формат : AVC
Формат/Информация : Advanced Video Codec
Профиль формата : [email protected]
Параметр CABAC формата : Да
Параметр ReFrames формата : 4 кадра
Идентификатор кодека : V_MPEG4/ISO/AVC
Продолжительность : 2 ч. 8 м.
Битрейт : 17,6 Мбит/сек
Ширина : 1920 пикселей
Высота : 2160 пикселей
Соотношение сторон : 0,889
Частота кадров : 23,976 кадра/сек
Цветовое пространство : YUV
Субдискретизация насыщенности : 4:2:0
Битовая глубина : 8 бит
Тип развёртки : Прогрессивная
Бит/(Пиксели*Кадры) : 0.177
Размер потока : 15,7 Гбайт (92%)
Заголовок : Rip by SeRoGa00
Библиотека кодирования : x264 core 155 r2901 7d0ff22
Настройки программы : cabac=1 / ref=4 / deblock=1:-3:-3 / analyse=0x3:0x113 / me=umh / subme=10 / psy=1 / psy_rd=1.00:0.15 / mixed_ref=1 / me_range=24 / chroma_me=1 / trellis=2 / 8x8dct=1 / cqm=0 / deadzone=21,11 / fast_pskip=1 / chroma_qp_offset=-3 / threads=12 / lookahead_threads=6 / sliced_threads=0 / nr=0 / decimate=0 / interlaced=0 / bluray_compat=0 / constrained_intra=0 / bframes=10 / b_pyramid=2 / b_adapt=2 / b_bias=0 / direct=3 / weightb=1 / open_gop=0 / weightp=2 / keyint=250 / keyint_min=23 / scenecut=40 / intra_refresh=0 / rc_lookahead=60 / rc=crf / mbtree=1 / crf=16.5 / qcomp=0.60 / qpmin=10 / qpmax=69 / qpstep=4 / vbv_maxrate=40000 / vbv_bufsize=40000 / crf_max=0.0 / nal_hrd=none / filler=0 / ip_ratio=1.40 / aq=1:1.00
Язык : English
Default : Нет
Forced : Нет
Аудио #1
Идентификатор : 2
Формат : AC-3
Формат/Информация : Audio Coding 3
Расширение режима : CM (complete main)
Параметр Endianness формата : Big
Идентификатор кодека : A_AC3
Продолжительность : 2 ч. 8 м.
Вид битрейта : Постоянный
Битрейт : 640 Кбит/сек
Каналы : 6 каналов
Расположение каналов : Front: L C R, Side: L R, LFE
Частота : 48,0 КГц
Битовая глубина : 16 бит
Метод сжатия : С потерями
Размер потока : 588 Мбайт (3%)
Язык : Russian
Default : Да
Forced : Нет
Аудио #2
Идентификатор : 3
Формат : AC-3
Формат/Информация : Audio Coding 3
Расширение режима : CM (complete main)
Параметр Endianness формата : Big
Идентификатор кодека : A_AC3
Продолжительность : 2 ч. 8 м.
Вид битрейта : Постоянный
Битрейт : 448 Кбит/сек
Каналы : 6 каналов
Расположение каналов : Front: L C R, Side: L R, LFE
Частота : 48,0 КГц
Битовая глубина : 16 бит
Метод сжатия : С потерями
Размер потока : 411 Мбайт (2%)
Язык : English
Default : Нет
Forced : Нет
Меню
00:00:00.000 : en:00:00:00.000
00:09:24.397 : en:00:09:24.397
00:16:13.304 : en:00:16:13.304
00:24:20.625 : en:00:24:20.625
00:31:24.590 : en:00:31:24.590
00:35:53.067 : en:00:35:53.067
00:41:27.818 : en:00:41:27.818
00:44:53.815 : en:00:44:53.815
00:50:16.804 : en:00:50:16.804
00:54:21.173 : en:00:54:21.173
01:00:51.396 : en:01:00:51.396
01:07:12.068 : en:01:07:12.068
01:11:12.850 : en:01:11:12.850
01:17:37.735 : en:01:17:37.735
01:25:25.619 : en:01:25:25.619
01:33:30.395 : en:01:33:30.395
01:39:28.545 : en:01:39:28.545
01:47:58.262 : en:01:47:58.262
01:52:11.557 : en:01:52:11.557
01:58:33.523 : en:01:58:33.523
Скриншоты
Download
Для скачивания .torrent файлов необходима регистрация
Сайт не распространяет и не хранит электронные версии произведений, а лишь предоставляет доступ к создаваемому пользователями каталогу ссылок на торрент-файлы, которые содержат только списки хеш-сумм
[Профиль]  [ЛС] 

Ash61

Top Seed 04* 320r

Стаж: 10 лет 7 месяцев

Сообщений: 5004

Ash61 · 03-Апр-19 23:37 (спустя 1 день 7 часов)

Звук iTunes - Временная
[Профиль]  [ЛС] 

nikolya70

Стаж: 9 лет 5 месяцев

Сообщений: 4


nikolya70 · 07-Апр-19 20:50 (спустя 3 дня)

фильм по смыслу фигня полная, точнее вообще смысла нет.
так , просто посмотреть на разок и забыть.
[Профиль]  [ЛС] 

SeRoGa00

Top Seed 02* 80r

Стаж: 9 лет 2 месяца

Сообщений: 754

SeRoGa00 · 12-Апр-19 15:58 (спустя 4 дня)

12.04.2019. Релиз обновлён. Русская звуковая дорожка iTunes заменена на лицензию.
Желающие, скачайте заново торрент-файл.
[Профиль]  [ЛС] 

nextgen24

Стаж: 10 лет 8 месяцев

Сообщений: 118


nextgen24 · 21-Апр-19 21:04 (спустя 9 дней, ред. 21-Апр-19 21:04)

Да не особо запоминающийся фильм. Лет 25 назад по спецэффектам был бы огонь, а сейчас уже таким не удивишь никого. Всем и сюжет и картинку и глубокую драму подавай. Но в принципе на раз посмотреть нормальный. Глаз и ухо не режет.
[Профиль]  [ЛС] 

Vetusto

Стаж: 11 лет 2 месяца

Сообщений: 68


Vetusto · 28-Апр-19 23:28 (спустя 7 дней)

Коллеги, а не в курсе, почему Дюна HD Duo 4K мажет картинку на этом фильме? Ставлю 3Д в настройках, и все в расфокусе, можно смотреть только одним глазом.
[Профиль]  [ЛС] 
 
Ответить
Loading...
Error