Путешествие по национальным паркам 3D в 3Д / National Parks Adventure 3D (Грег МакГилливрэй / Greg MacGillivray) [2016, документальный, видовой, короткометражка, BDRip] VO, Half OverUnder / Вертикальная анаморфная стереопара

Страницы:  1

Ответить
Автор
Сообщение

Ash61

Top Seed 04* 320r

Стаж: 10 лет 7 месяцев

Сообщений: 5004

Ash61 · 26-Мар-19 13:11 (3 месяца 24 дня назад, ред. 26-Мар-19 13:24)


Путешествие по национальным паркам 3D
National Parks Adventure

«Откройте для себя дикие места, которые принадлежат нам всем»

Год выпуска: 2016
Страна: США (MacGillivray Freeman Films)
Жанр: документальный, видовой, короткометражка
Продолжительность: 00:43:27
Перевод: Любительский одноголосый закадровый (NoNamed) (перевод любительский - Ash61)
Режиссер: Грег МакГилливрэй / Greg MacGillivray
Рассказчик на английском: Роберт Редфорд / Robert Redford
Описание: Вместе с легендарным скалолазом Конрадом Анкером, фотографом Максом Лоу и художницей Рейчел Пол зрители совершат невероятное путешествие сразу по 30 национальным паркам Северной Америки. Они перенесутся на дно Гранд Каньона и попробуют подняться на скалу Башня Дьявола, прогуляются под кронами гигантских секвой парка Редвуд и увернутся от струй гейзеров Йеллоустона, встретят аллигаторов на мангровых болотах долины Эверглейдс и поучаствуют в медвежьей рыбалке во время нереста лосося на Аляске.
Доп. инфо: Всё как обычно у Greg MacGillivray: всё снято очень красиво, многие сцены в псевдо 3Д, снято IMAX 3D камерами.
Премьера: 12 февраля 2016 (17 сентября 2016)
. .

Качество: BDRip (by Ash61)
Контейнер: MKV
Формат 3D: Half OverUnder / Вертикальная анаморфная стереопара
Порядок ракурсов: левый ракурс первый
Видео: AVC / 1920х1080p / 23,976 fps / 19.0 Mbps
Аудио:
#1 - Русский / AC3 / 48 KHz / 5.1 ch / 640 Kbps (VO)
#2 - Английский / AC3 / 48 KHz / 5.1 ch / 640 Kbps (Original - BD 3D)
Субтитры (внешние SRT UTF-8):
#1 - Русские Полные [Ash61]
#2 - English Full
#3 - English SDH
MediaInfo
General
Unique ID : 222506884894593856042982793280177098539 (0xA765446A2C782AA1A88E920EFF00CF2B)
Complete name : J:\NationalParksAdventure(2016)3D-halfOU(Ash61)VO\NationalParksAdventure(2016)3D-halfOU(Ash61)VO.mkv
Format : Matroska
Format version : Version 2
File size : 6.15 GiB
Duration : 43mn 26s
Overall bit rate : 20.3 Mbps
Movie name : Путешествие по национальном паркам 3D / National Parks Adventure (2016) in 3D
Encoded date : UTC 2019-03-25 19:15:35
Writing application : mkvmerge v5.8.0 ('No Sleep / Pillow') built on Sep 2 2012 15:37:04
Writing library : libebml v1.2.3 + libmatroska v1.3.0
Video
ID : 1
Format : AVC
Format/Info : Advanced Video Codec
Format profile : [email protected]
Format settings, CABAC : Yes
Format settings, ReFrames : 4 frames
Codec ID : V_MPEG4/ISO/AVC
Duration : 43mn 26s
Bit rate : 19.0 Mbps
Width : 1 920 pixels
Height : 1 080 pixels
Display aspect ratio : 16:9
Frame rate mode : Constant
Frame rate : 23.976 (24000/1001) fps
Color space : YUV
Chroma subsampling : 4:2:0
Bit depth : 8 bits
Scan type : Progressive
Bits/(Pixel*Frame) : 0.382
Stream size : 5.64 GiB (92%)
Title : BDRip by Ash61
Writing library : x264 core 146 r2538 121396c
Encoding settings : cabac=1 / ref=4 / deblock=1:-3:-3 / analyse=0x3:0x113 / me=umh / subme=10 / psy=1 / psy_rd=1.00:0.00 / mixed_ref=1 / me_range=32 / chroma_me=1 / trellis=2 / 8x8dct=1 / cqm=0 / deadzone=21,11 / fast_pskip=0 / chroma_qp_offset=-2 / threads=12 / lookahead_threads=3 / sliced_threads=0 / nr=0 / decimate=0 / interlaced=0 / bluray_compat=0 / constrained_intra=0 / bframes=12 / b_pyramid=2 / b_adapt=2 / b_bias=0 / direct=3 / weightb=1 / open_gop=0 / weightp=2 / keyint=250 / keyint_min=23 / scenecut=40 / intra_refresh=0 / rc_lookahead=60 / rc=2pass / mbtree=0 / bitrate=19000 / ratetol=1.0 / qcomp=0.70 / qpmin=0 / qpmax=69 / qpstep=4 / cplxblur=20.0 / qblur=0.5 / vbv_maxrate=40000 / vbv_bufsize=30000 / nal_hrd=none / filler=0 / frame-packing=4 / ip_ratio=1.40 / pb_ratio=1.30 / aq=1:0.70
Language : English
Default : Yes
Forced : No
Audio #1
ID : 2
Format : AC-3
Format/Info : Audio Coding 3
Mode extension : CM (complete main)
Format settings, Endianness : Big
Codec ID : A_AC3
Duration : 43mn 26s
Bit rate mode : Constant
Bit rate : 640 Kbps
Channel(s) : 6 channels
Channel positions : Front: L C R, Side: L R, LFE
Sampling rate : 48.0 KHz
Frame rate : 31.250 fps (1536 spf)
Compression mode : Lossy
Stream size : 199 MiB (3%)
Title : Любительский одноголосый закадровый - NoNamed (перевод любительский - Ash61)
Language : Russian
Default : Yes
Forced : No
Audio #2
ID : 3
Format : AC-3
Format/Info : Audio Coding 3
Mode extension : CM (complete main)
Format settings, Endianness : Big
Codec ID : A_AC3
Duration : 43mn 26s
Bit rate mode : Constant
Bit rate : 640 Kbps
Channel(s) : 6 channels
Channel positions : Front: L C R, Side: L R, LFE
Sampling rate : 48.0 KHz
Frame rate : 31.250 fps (1536 spf)
Compression mode : Lossy
Stream size : 199 MiB (3%)
Title : Original
Language : English
Default : No
Forced : No
Menu
00:00:00.000 : :1
00:03:46.351 : :2
00:06:26.011 : :3
00:08:34.556 : :4
00:10:32.215 : :5
00:15:50.241 : :6
00:18:46.125 : :7
00:23:19.523 : :8
00:24:25.172 : :9
00:29:59.297 : :10
00:33:36.598 : :11
00:36:01.618 : :12
00:39:09.222 : :13
00:42:38.181 : :14
Для оценки 3Д - Анимированные скрины



















Download
Для скачивания .torrent файлов необходима регистрация
Сайт не распространяет и не хранит электронные версии произведений, а лишь предоставляет доступ к создаваемому пользователями каталогу ссылок на торрент-файлы, которые содержат только списки хеш-сумм
[Профиль]  [ЛС] 

arslan1878

Стаж: 9 лет 6 месяцев

Сообщений: 6


arslan1878 · 26-Мар-19 21:02 (спустя 7 часов)

Спасибо, таки заценим на выходных
[Профиль]  [ЛС] 

SanEx007

Стаж: 9 лет 3 месяца

Сообщений: 112

SanEx007 · 03-Апр-19 10:29 (спустя 7 дней)

Огромное Спасибо ! 3D местами очень глубокое и картинка как в рекламных роликах. А перевод можно сказать Профессиональным получился.
[Профиль]  [ЛС] 

_GHS_

Стаж: 7 лет 7 месяцев

Сообщений: 322

_GHS_ · 04-Май-19 11:38 (спустя 1 месяц 1 день)

Спасибо, за прекрасный фильм
[Профиль]  [ЛС] 

Poalbo

Стаж: 8 лет 11 месяцев

Сообщений: 20


Poalbo · 16-Май-19 12:15 (спустя 12 дней)

Ash61, спасибо за отличный фильм и отдельное спасибо за Ваш перевод на профессиональном уровне!
[Профиль]  [ЛС] 

nazim5

Стаж: 7 лет 3 месяца

Сообщений: 3870

nazim5 · 20-Май-19 12:37 (спустя 4 дня, ред. 20-Май-19 12:37)

Отличная документалка! Виды проста улет! Спасибо за перевод! А вы случайно не могли бы свой голос в DTS-HD собирать для полноценного Блу-рей диска или для отдельной раздачи? Было бы ШИКАРНО!
Ash61 писал(а):
77097787Всё как обычно у Greg MacGillivray
Нее, не как обычно, тут лучше.
[Профиль]  [ЛС] 

Ash61

Top Seed 04* 320r

Стаж: 10 лет 7 месяцев

Сообщений: 5004

Ash61 · 20-Май-19 19:00 (спустя 6 часов)

nazim5 писал(а):
77403831А вы случайно не могли бы свой голос в DTS-HD собирать для полноценного Блу-рей диска или для отдельной раздачи? Было бы ШИКАРНО!
Могу, без проблем, только нет желания создавать ещё и БД-раздачу. Посмотрим, на что желание будет...
[Профиль]  [ЛС] 

nazim5

Стаж: 7 лет 3 месяца

Сообщений: 3870

nazim5 · 20-Май-19 21:08 (спустя 2 часа 7 мин.)

Ash61 писал(а):
77405874Могу, без проблем
Ну давайте, дальше сделаю я
[Профиль]  [ЛС] 

Ash61

Top Seed 04* 320r

Стаж: 10 лет 7 месяцев

Сообщений: 5004

Ash61 · 21-Май-19 02:20 (спустя 5 часов)

nazim5
Как время будет, займусь.
[Профиль]  [ЛС] 
 
Ответить
Loading...
Error