Человек-паук: Через вселенные / Spider-Man: Into the Spider-Verse (Боб Персичетти, Питер Рэмзи, Родни Ротман / Bob Persichetti, Peter Ramsey, Rodney Rothman ) [2018, США, Мультфильм, BDRip, HD (720p)] DUB + Original + sub (rus, eng, ukr)

Страницы:  1

Ответить
Автор
Сообщение

pk5360114

Стаж: 10 лет 4 месяца

Сообщений: 4434

pk5360114 · 13-Мар-19 14:13 (3 месяца 11 дней назад)

Человек-паук: Через вселенные / Spider-Man: Into the Spider-Verse
«Enter a universe where more than one wears the mask»
8.092 / 10 8.60 / 10

Год выпуска: 2018
Страна: США
Жанр: Мультфильм, фантастика, боевик, приключения, семейный
Продолжительность: 01:56:50
Перевод: Дублированный (iTunes)
Оригинальная аудиодорожка: Есть
Cубтитры: Русские, Английские, Украинские
Режиссёр: Боб Персичетти, Питер Рэмзи, Родни Ротман
Сценарий: Фил Лорд, Родни Ротман
Продюсер: Уилл Аллегра, Ави Арад, Брайан Бендис
Композитор: Дэниэл Пембертон
Художник: Джастин Томпсон, Дин Гордон, Патрик О’Кифи
Монтаж: Роберт Фишер мл.
В ролях: Шамеик Мур, Джейк Джонсон, Хейли Стайнфелд, Махершала Али, Брайан Тайри Генри, Лили Томлин, Луна Лорен Велес, Зои Кравиц, Джон Малэйни, Кимико Гленн
Бюджет: $90 000 000
Сборы в США: $188 871 802
Сборы в мире: + $178 000 000 = $366 871 802
Сборы в России: $6 281 442
Мировая премьера: 6 декабря 2018
Премьера (РФ): 13 декабря 2018, «WDSSPR»
Цифровой релиз: 11 марта 2019, «Sony Pictures Home Entertainment»
Описание: Мы всё знаем о Питере Паркере. Он спас город, влюбился, а потом спасал город снова и снова… Но все это — в нашем измерении. А что если в результате работы гигантского коллайдера откроется окно из одного измерения в другое? Найдется ли в нем свой Человек-паук? И как он будет выглядеть? Приготовьтесь к тому, что в разных вселенных могут быть разные Люди-пауки и однажды им придется собраться вместе для борьбы с почти непобедимым врагом.
Качество исходника: BDRemux (NNMClub)
Качество: BDRip
Тип: HD (720p)
Контейнер: M4V
Видео: H.264, 1280x544, 2.35:1, 3 500 Kbps, 23.976 (24000/1001) fps
Аудио 1: Русский/Дублированный (iTunes), AAC LC / 2.0 / 160 Kbps / 48.0 KHz
Аудио 2: Английский/Оригинальная дорожка , AAC LC / 2.0 / 160 Kbps / 48.0 KHz
Аудио 3: Русский/Дублированный (iTunes), AC-3 / 5.1 / 384 Kbps / 48.0 KHz
Аудио 4: Английский/Оригинальная дорожка , AC-3 / 5.1 / 640 Kbps / 48.0 KHz
Субтитры 1: Русские полные
Субтитры 2: Английские полные
Субтитры 3: Украинские полные


iTunes Meta Tags
Код:
Sort Name: Spider-Man: Into the Spider-Verse
XID: Apple:vendor_id:2018-920265
contentID: 1444695454
Copyright: 2018 Sony Pictures Animation Inc. All Rights Reserved.  MARVEL and all related character names: © & ™ 2018 MARVEL.
Screenwriters: Фил Лорд, Родни Ротман
Producers: Уилл Аллегра, Ави Арад, Брайан Бендис
Director: Боб Персичетти, Питер Рэмзи, Родни Ротман
Cast: Шамеик Мур, Джейк Джонсон, Хейли Стайнфелд, Махершала Али, Брайан Тайри Генри, Лили Томлин, Луна Лорен Велес, Зои Кравиц, Джон Малэйни, Кимико Гленн
Studio: Columbia Pictures Corporation
Rating Annotation: Rated PG for frenetic sequences of animated action violence, thematic elements, and mild language.
Rating: 3
Long Description: Мы всё знаем о Питере Паркере. Он спас город, влюбился, а потом спасал город снова и снова... Но все это - в нашем измерении. А что если в результате работы гигантского коллайдера откроется окно из одного измерения в другое? Найдется ли в нем свой Человек-паук? И как он будет выглядеть? Приготовьтесь к тому, что в разных вселенных могут быть разные Люди-пауки и однажды им придется собраться вместе для борьбы с почти непобедимым врагом.
Description: Мы всё знаем о Питере Паркере. Он спас город, влюбился, а потом спасал город снова и снова... Но все это - в нашем измерении. А что если в результате работы гигантского коллайдера откроется окно из одного измерения в другое? Найдется ли в нем свой Человек-паук? И как он будет выглядеть?
Release Date: 2018-12-06T08:00:00Z
Genre: Action & Adventure
Artist: Rodney Rothman, Peter Ramsey & Bob Persichetti
Name: Spider-Man: Into the Spider-Verse
MediaInfo
Код:
General
Complete name                            : /Users/imac/HandBrake/Spider-Man.Into.the.Spider-Verse.720p.HD.m4v
Format                                   : MPEG-4
Codec ID                                 : M4V  (M4V /M4A /mp42/isom)
File size                                : 3.95 GiB
Duration                                 : 1h 56mn
Overall bit rate mode                    : Variable
Overall bit rate                         : 4 843 Kbps
Movie name                               : Spider-Man: Into the Spider-Verse
Performer                                : Rodney Rothman, Peter Ramsey & Bob Persichetti
Director                                 : Боб Персичетти / Питер Рэмзи / Родни Ротман
Actor                                    : Шамеик Мур / Джейк Джонсон / Хейли Стайнфелд / Махершала Али / Брайан Тайри Генри / Лили Томлин / Луна Лорен Велес / Зои Кравиц / Джон Малэйни / Кимико Гленн
Screenplay by                            : Фил Лорд / Родни Ротман
Producer                                 : Уилл Аллегра / Ави Арад / Брайан Бендис
Production studio                        : Columbia Pictures Corporation
Genre                                    : Action & Adventure
ContentType                              : Short Film
Description                              : Мы всё знаем о Питере Паркере. Он спас город, влюбился, а потом спасал город снова и снова... Но все это - в нашем измерении. А что если в результате работы гигантского коллайдера откроется окно из одного измерения в другое? Найдется ли в нем свой Человек-паук? И как он будет выглядеть?
Recorded date                            : UTC 2018-12-06 08:00:00
Encoded date                             : UTC 2019-03-13 10:58:45
Tagged date                              : UTC 2019-03-13 11:06:45
Copyright                                : 2018 Sony Pictures Animation Inc. All Rights Reserved.  MARVEL and all related character names: © & ™ 2018 MARVEL.
Cover                                    : Yes
Rating                                   : None
Title/Sort                               : Spider-Man: Into the Spider-Verse
LongDescription                          : Мы всё знаем о Питере Паркере. Он спас город, влюбился, а потом спасал город снова и снова... Но все это - в нашем измерении. А что если в результате работы гигантского коллайдера откроется окно из одного измерения в другое? Найдется ли в нем свой Человек-паук? И как он будет выглядеть? Приготовьтесь к тому, что в разных вселенных могут быть разные Люди-пауки и однажды им придется собраться вместе для борьбы с почти непобедимым врагом.
AppleStoreCatalogID                      : 1444695454
Vendor                                   : Apple:vendor_id:2018-920265
ContentRating                            : mpaa|PG|200|Rated PG for frenetic sequences of animated action violence, thematic elements, and mild language.
Video #1
ID                                       : 1
Format                                   : AVC
Format/Info                              : Advanced Video Codec
Format profile                           : [email protected]
Format settings                          : 3 Ref Frames
Format settings, CABAC                   : No
Format settings, ReFrames                : 3 frames
Codec ID                                 : avc1
Codec ID/Info                            : Advanced Video Coding
Duration                                 : 1h 56mn
Bit rate                                 : 3 500 Kbps
Width                                    : 1 280 pixels
Height                                   : 544 pixels
Display aspect ratio                     : 2.35:1
Frame rate mode                          : Variable
Frame rate                               : 23.976 (24000/1001) fps
Minimum frame rate                       : 23.974 fps
Maximum frame rate                       : 23.981 fps
Color space                              : YUV
Chroma subsampling                       : 4:2:0
Bit depth                                : 8 bits
Scan type                                : Progressive
Bits/(Pixel*Frame)                       : 0.210
Stream size                              : 2.85 GiB (72%)
Title                                    : Main Program
Writing library                          : x264 core 157 r2935 545de2f
Encoding settings                        : cabac=0 / ref=3 / deblock=1:-3:-3 / analyse=0x3:0x113 / me=umh / subme=9 / psy=1 / psy_rd=1.00:0.15 / mixed_ref=1 / me_range=32 / chroma_me=1 / trellis=0 / 8x8dct=1 / cqm=0 / deadzone=21,11 / fast_pskip=0 / chroma_qp_offset=-2 / threads=17 / lookahead_threads=1 / sliced_threads=0 / nr=0 / decimate=0 / interlaced=0 / bluray_compat=0 / constrained_intra=0 / bframes=3 / b_pyramid=0 / b_adapt=2 / b_bias=0 / direct=1 / weightb=0 / open_gop=0 / weightp=0 / keyint=240 / keyint_min=24 / scenecut=40 / intra_refresh=0 / rc_lookahead=40 / rc=2pass / mbtree=1 / bitrate=3500 / ratetol=1.0 / qcomp=0.65 / qpmin=0 / qpmax=69 / qpstep=4 / cplxblur=20.0 / qblur=0.5 / vbv_maxrate=9500 / vbv_bufsize=9500 / nal_hrd=none / filler=0 / ip_ratio=1.40 / aq=1:1.10
Language                                 : English
Encoded date                             : UTC 2019-03-13 10:58:45
Tagged date                              : UTC 2019-03-13 10:58:57
Color range                              : Limited
Color primaries                          : BT.709
Transfer characteristics                 : BT.709
Matrix coefficients                      : BT.709
Menus                                    : 9,10
Codec configuration box                  : avcC
Video #2
ID                                       : 10
Format                                   : JPEG
Codec ID                                 : jpeg
Duration                                 : 1h 56mn
Bit rate mode                            : Variable
Bit rate                                 : 640 bps
Width                                    : 640 pixels
Height                                   : 272 pixels
Display aspect ratio                     : 2.35:1
Frame rate mode                          : Variable
Frame rate                               : 0.002 fps
Minimum frame rate                       : 0.001 fps
Maximum frame rate                       : 0.012 fps
Color space                              : YUV
Chroma subsampling                       : 4:2:0
Bit depth                                : 8 bits
Compression mode                         : Lossy
Bits/(Pixel*Frame)                       : 1.838
Stream size                              : 625 KiB (0%)
Title                                    : Chapter Images
Language                                 : English
Default                                  : No
Encoded date                             : UTC 2019-03-13 10:59:15
Tagged date                              : UTC 2019-03-13 10:59:15
Menu For                                 : 1
ColorSpace_ICC                           : RGB
Audio #1
ID                                       : 2
Format                                   : AAC LC
Format/Info                              : Advanced Audio Codec Low Complexity
Codec ID                                 : mp4a-40-2
Duration                                 : 1h 56mn
Source duration                          : 1h 56mn
Bit rate mode                            : Variable
Bit rate                                 : 157 Kbps
Maximum bit rate                         : 291 Kbps
Channel(s)                               : 2 channels
Channel layout                           : L R
Sampling rate                            : 48.0 KHz
Frame rate                               : 46.875 fps (1024 SPF)
Compression mode                         : Lossy
Stream size                              : 131 MiB (3%)
Source stream size                       : 131 MiB (3%)
Title                                    : Russian Stereo
Language                                 : Russian
Default                                  : Yes
Alternate group                          : 1
Encoded date                             : UTC 2019-03-13 10:58:45
Tagged date                              : UTC 2019-03-13 10:59:11
Fallback From                            : 4
Audio #2
ID                                       : 3
Format                                   : AAC LC
Format/Info                              : Advanced Audio Codec Low Complexity
Codec ID                                 : mp4a-40-2
Duration                                 : 1h 56mn
Source duration                          : 1h 56mn
Bit rate mode                            : Variable
Bit rate                                 : 156 Kbps
Maximum bit rate                         : 278 Kbps
Channel(s)                               : 2 channels
Channel layout                           : L R
Sampling rate                            : 48.0 KHz
Frame rate                               : 46.875 fps (1024 SPF)
Compression mode                         : Lossy
Stream size                              : 130 MiB (3%)
Source stream size                       : 130 MiB (3%)
Title                                    : English Stereo
Language                                 : English
Default                                  : No
Alternate group                          : 1
Encoded date                             : UTC 2019-03-13 10:58:45
Tagged date                              : UTC 2019-03-13 10:59:11
Fallback From                            : 5
Audio #3
ID                                       : 4
Format                                   : AC-3
Format/Info                              : Audio Coding 3
Commercial name                          : Dolby Digital
Codec ID                                 : ac-3
Duration                                 : 1h 56mn
Bit rate mode                            : Constant
Bit rate                                 : 384 Kbps
Channel(s)                               : 6 channels
Channel layout                           : L R C LFE Ls Rs
Sampling rate                            : 48.0 KHz
Frame rate                               : 31.250 fps (1536 SPF)
Bit depth                                : 16 bits
Compression mode                         : Lossy
Stream size                              : 321 MiB (8%)
Title                                    : Russian DD 5.1
Language                                 : Russian
Service kind                             : Complete Main
Default                                  : Inherited From: 2
Alternate group                          : 1
Encoded date                             : UTC 2019-03-13 10:58:45
Tagged date                              : UTC 2019-03-13 10:59:11
Fallback To                              : 2
Audio #4
ID                                       : 5
Format                                   : AC-3
Format/Info                              : Audio Coding 3
Commercial name                          : Dolby Digital
Codec ID                                 : ac-3
Duration                                 : 1h 56mn
Bit rate mode                            : Constant
Bit rate                                 : 640 Kbps
Channel(s)                               : 6 channels
Channel layout                           : L R C LFE Ls Rs
Sampling rate                            : 48.0 KHz
Frame rate                               : 31.250 fps (1536 SPF)
Bit depth                                : 16 bits
Compression mode                         : Lossy
Stream size                              : 535 MiB (13%)
Title                                    : English DD 5.1
Language                                 : English
Service kind                             : Complete Main
Default                                  : No
Alternate group                          : 1
Encoded date                             : UTC 2019-03-13 10:58:45
Tagged date                              : UTC 2019-03-13 10:59:11
Fallback To                              : 3
Text #1
ID                                       : 6
Format                                   : Timed Text
Muxing mode                              : sbtl
Codec ID                                 : tx3g
Duration                                 : 1h 56mn
Bit rate mode                            : Variable
Bit rate                                 : 93 bps
Stream size                              : 79.2 KiB (0%)
Title                                    : Russian full
Language                                 : Russian
Default                                  : Yes
Forced                                   : No
Alternate group                          : 2
Encoded date                             : UTC 2019-03-13 10:58:45
Tagged date                              : UTC 2019-03-13 10:59:11
Text #2
ID                                       : 7
Format                                   : Timed Text
Muxing mode                              : sbtl
Codec ID                                 : tx3g
Duration                                 : 1h 56mn
Bit rate mode                            : Variable
Bit rate                                 : 65 bps
Stream size                              : 55.2 KiB (0%)
Title                                    : English full
Language                                 : English
Default                                  : No
Forced                                   : No
Alternate group                          : 2
Encoded date                             : UTC 2019-03-13 10:58:45
Tagged date                              : UTC 2019-03-13 10:59:11
Text #3
ID                                       : 8
Format                                   : Timed Text
Muxing mode                              : sbtl
Codec ID                                 : tx3g
Duration                                 : 1h 56mn
Bit rate mode                            : Variable
Bit rate                                 : 91 bps
Stream size                              : 77.7 KiB (0%)
Title                                    : Ukrainian full
Language                                 : Ukrainian
Default                                  : No
Forced                                   : No
Alternate group                          : 2
Encoded date                             : UTC 2019-03-13 10:58:45
Tagged date                              : UTC 2019-03-13 10:59:11
Menu #1
00:00:00.000                             : Chapter 1
00:09:03.793                             : Chapter 2
00:14:04.719                             : Chapter 3
00:18:51.714                             : Chapter 4
00:29:39.027                             : Chapter 5
00:34:14.636                             : Chapter 6
00:40:34.432                             : Chapter 7
00:44:22.827                             : Chapter 8
00:48:06.884                             : Chapter 9
00:58:45.856                             : Chapter 10
01:06:04.461                             : Chapter 11
01:09:55.483                             : Chapter 12
01:20:00.004                             : Chapter 13
01:24:54.923                             : Chapter 14
01:33:33.399                             : Chapter 15
01:55:26.920                             : Chapter 16
Menu #2
ID                                       : 9
Codec ID                                 : text
Duration                                 : 1h 56mn
Language                                 : English
Encoded date                             : UTC 2019-03-13 10:59:11
Tagged date                              : UTC 2019-03-13 10:59:11
Menu For                                 : 1
00:00:00.000                             : Chapter 1
00:09:03.793                             : Chapter 2
00:14:04.719                             : Chapter 3
00:18:51.714                             : Chapter 4
00:29:39.027                             : Chapter 5
00:34:14.636                             : Chapter 6
00:40:34.432                             : Chapter 7
00:44:22.827                             : Chapter 8
00:48:06.884                             : Chapter 9
00:58:45.856                             : Chapter 10
01:06:04.461                             : Chapter 11
01:09:55.483                             : Chapter 12
01:20:00.004                             : Chapter 13
01:24:54.923                             : Chapter 14
01:33:33.399                             : Chapter 15
01:55:26.920                             : Chapter 16
Bit rate mode                            : VBR
x264 лог
Код:
x264 [info]: frame I:2298  Avg QP:17.89  size:104352
x264 [info]: frame P:76142 Avg QP:21.75  size: 27932
x264 [info]: frame B:89632 Avg QP:23.52  size:  7765
x264 [info]: consecutive B-frames:  8.9% 56.3% 11.2% 23.7%
x264 [info]: mb I  I16..4: 10.1% 52.7% 37.2%
x264 [info]: mb P  I16..4:  2.7%  6.6%  5.0%  P16..4: 43.8% 17.8%  8.5%  0.0%  0.0%    skip:15.6%
x264 [info]: mb B  I16..4:  0.4%  1.0%  0.9%  B16..8: 32.5%  7.0%  1.5%  direct: 2.7%  skip:53.9%  L0:40.7% L1:51.3% BI: 8.0%
x264 [info]: 8x8 transform intra:46.9% inter:47.2%
x264 [info]: coded y,uvDC,uvAC intra: 73.8% 82.0% 66.5% inter: 18.7% 23.5% 15.0%
x264 [info]: i16 v,h,dc,p: 46% 25%  8% 21%
x264 [info]: i8 v,h,dc,ddl,ddr,vr,hd,vl,hu:  8%  8%  6% 14% 16% 13% 14% 10% 11%
x264 [info]: i4 v,h,dc,ddl,ddr,vr,hd,vl,hu: 10% 12%  6% 12% 16% 13% 13%  9%  9%
x264 [info]: i8c dc,h,v,p: 51% 19% 19% 10%
x264 [info]: ref P L0: 75.2% 14.6% 10.2%
x264 [info]: ref B L0: 84.2% 15.8%
x264 [info]: kb/s:3495.08
Скриншоты



Релиз подготовлен для просмотра на Apple TV, iPad, iPhone, iPod Touch.
Для просмотра данного релиза на компьютере с ОС Windows рекомендуется использовать VLC media player
Download
Для скачивания .torrent файлов необходима регистрация
Сайт не распространяет и не хранит электронные версии произведений, а лишь предоставляет доступ к создаваемому пользователями каталогу ссылок на торрент-файлы, которые содержат только списки хеш-сумм
[Профиль]  [ЛС] 

lostbyoccasion

Стаж: 8 лет 4 месяца

Сообщений: 8


lostbyoccasion · 13-Мар-19 22:46 (спустя 8 часов)

Просто невероятный фильм, артовый и безумно красивый
[Профиль]  [ЛС] 

Drunk Vulture

Стаж: 7 лет 8 месяцев

Сообщений: 5

Drunk Vulture · 15-Мар-19 20:31 (спустя 1 день 21 час)

Спасибо автору за эту раздачу и за другие раздачи в разделе для Apple TV тоже большое спасибо!
[Профиль]  [ЛС] 

Jazzmad

Стаж: 8 лет 9 месяцев

Сообщений: 703

Jazzmad · 17-Мар-19 22:47 (спустя 2 дня 2 часа)

За первые 45 минут не было ни одного смешного или интересного момента. Да и дёрганная анимация персонажей возвращает болезненные воспоминания о последнем "Берсерке". В утиль.
[Профиль]  [ЛС] 

nouefa

Стаж: 6 лет 4 месяца

Сообщений: 32

nouefa · 30-Мар-19 16:40 (спустя 12 дней)

Jazzmad
полностью поддерживаю. Совершенно однопластовое односложное кино. Всё.
[Профиль]  [ЛС] 

BenAffleckMattDamon

Стаж: 4 года 4 месяца

Сообщений: 77


BenAffleckMattDamon · 16-Апр-19 07:54 (спустя 16 дней)

pk5360114
Скиньте пожалуйста мультфильм для iPad
[Профиль]  [ЛС] 
 
Ответить
Loading...
Error