Горячий шоколад и шило для колки льда / Chocolat chaud et pic a glace (Ноэль Тортахада / Noel Tortajada, Николя Фрей / Nicolas Frey) [2016, Швейцария, детектив, комедия абсурда, черный юмор, короткий метр, DVB] Original (Fra) + Sub (Rus, Eng, Fra)

Страницы:  1

Ответить
Автор
Сообщение

ralf124c41+

Top Best

Стаж: 9 лет 5 месяцев

Сообщений: 12281

ralf124c41+ · 31-Дек-17 15:24 (1 год 5 месяцев назад, ред. 01-Янв-18 09:27)

Горячий шоколад и шило для колки льда
Chocolat chaud et pic à glace
Страна: Швейцария
Жанр: детектив, комедия абсурда, черный юмор, короткий метр
Год выпуска: 2016
Продолжительность: 00:30:30
Перевод: Субтитры (перевод И.Рыбкиной, ECLAIR)
Субтитры: русские, английские, французские, немецкие, нидерландские
Оригинальная аудиодорожка: французский
Режиссер: Ноэль Тортахада / Noël Tortajada, Николя Фрей / Nicolas Frey
В ролях: Пьер Мисфуд / Pierre Misfud (Bruno Godet), Селин Гормагтиг / Céline Goormaghtigh (Marie-Paule Schmutz), Жиль Чуди / Gilles Tschudi (Flavio Calvino), Жан Леклер / Jean Leclerc (Camille Hansi-Ternes)
Описание: 24 декабря, Рождество. Пер Ноэль входит в дом и замирает от ужаса: в гостиной стоит большая голая ель, без шипов, а на полу, среди разорванных гирлянд, лежат тела семьи, усыпанные тысячами еловых иголок. На место преступления отправляются спецагенты Брюно Годе и Мари-Поль Шмутц, бывшие участники клинических испытаний по генной модификации, приобретшие удивительные способности...
Доп. информация: Hot Bird (13.0°E) TV5MONDE Europe DVB-S

Качество видео: DVB
Формат видео: MKV
Видео: MPEG Video 2, [email protected] (16:9), 25 fps, ~3035 kbps avg, 0.293 bit/pixel
Аудио: MPEG Audio 2, 2 ch, 48 kHz, 192 kbps - французский
Формат субтитров: softsub (SRT)
Пример субтитров
1
00:00:36,200 --> 00:00:38,575
ЕЛКА-УБИЙЦА
2
00:00:43,873 --> 00:00:48,623
Скандал в клинике "Саламандра"
3
00:00:48,712 --> 00:00:54,200
Профессор Торсон
проводила опыты по генной терапии.
4
00:00:54,200 --> 00:00:56,195
Клиника "Саламандра"
5
00:00:56,195 --> 00:00:58,955
Участники клинических
испытаний
6
00:00:58,955 --> 00:01:01,031
были генетически
модифицированы.
7
00:01:01,031 --> 00:01:06,117
Удивительные способности
пациентов "Саламандры"
8
00:01:06,117 --> 00:01:07,755
Ученые недоумевают
9
00:01:07,755 --> 00:01:13,130
Бывшие пациенты
стали спецагентами
10
00:01:16,952 --> 00:01:18,628
Брюно Годе,
библиотекарь, 47 лет
11
00:01:18,628 --> 00:01:23,038
Обладает обонянием в 100 раз
сильнее, чем у собаки
12
00:01:23,038 --> 00:01:24,871
Мари-Поль Шмутц,
патрульная, 42 года
13
00:01:24,871 --> 00:01:27,312
Гипнотизирует людей
быстрее, чем кобра
14
00:01:27,312 --> 00:01:29,430
Привет.
Как поживаете?
15
00:01:29,430 --> 00:01:33,992
Сегодня я обучу вас
методам утилизации
16
00:01:33,992 --> 00:01:37,202
Красота позволяет
спасти планету.
17
00:01:37,202 --> 00:01:40,671
Не выбрасывайте
кисточки от лака.
18
00:01:40,671 --> 00:01:42,709
Берегите их.
19
00:01:42,709 --> 00:01:45,200
Из них можно сделать
накладные ресницы
20
00:01:45,200 --> 00:01:49,075
и приклеить их на веки.
MediaInfo
General
Unique ID : 133919490785537191191804284159115641768 (0x64BFF4ABA52232FCAAA64AA8108BC3A8)
Complete name : [apreder]MM_Chocolat_chaud_et_pic_a_glace(2016)DVB.mkv
Format : Matroska
Format version : Version 2
File size : 719 MiB
Duration : 30 min 30 s
Overall bit rate mode : Variable
Overall bit rate : 3 293 kb/s
Movie name : Chocolat chaud et pic а glace
Released date : 2016-00-00
Encoded date : UTC 2017-12-31 12:10:43
Writing application : mkvmerge v19.0.0 ('Brave Captain') 64-bit
Writing library : libebml v1.3.5 + libmatroska v1.4.8
Cover : Yes
Attachments : cover.jpg / small_cover.jpg
ACTOR : Pierre Misfud, Celine Goormaghtigh, Gilles Tschudi
DIRECTOR : Noel Tortajada, Nicolas Frey
GENRE : Short, Crime, Comedy
KEYWORDS : rutracker.org
LAW_RATING : 16+
Video
ID : 1
Format : MPEG Video
Format version : Version 2
Format profile : [email protected]
Format settings : CustomMatrix / BVOP
Format settings, BVOP : Yes
Format settings, Matrix : Custom
Format settings, GOP : Variable
Format settings, picture structure : Frame
Codec ID : V_MPEG2
Codec ID/Info : MPEG 1 or 2 Video
Duration : 30 min 30 s
Bit rate mode : Variable
Bit rate : 3 035 kb/s
Maximum bit rate : 15.0 Mb/s
Width : 720 pixels
Height : 576 pixels
Display aspect ratio : 16:9
Active Format Description : Letterbox 16:9 image
Frame rate mode : Constant
Frame rate : 25.000 FPS
Standard : PAL
Color space : YUV
Chroma subsampling : 4:2:0
Bit depth : 8 bits
Scan type : Interlaced
Scan order : Top Field First
Compression mode : Lossy
Bits/(Pixel*Frame) : 0.293
Stream size : 662 MiB (92%)
Default : Yes
Forced : No
Audio
ID : 2
Format : MPEG Audio
Format version : Version 1
Format profile : Layer 2
Format settings : Joint stereo / Intensity Stereo + MS Stereo
Codec ID : A_MPEG/L2
Codec ID/Hint : MP2
Duration : 30 min 30 s
Bit rate mode : Constant
Bit rate : 192 kb/s
Channel(s) : 2 channels
Sampling rate : 48.0 kHz
Compression mode : Lossy
Stream size : 41.9 MiB (6%)
Language : French
Default : Yes
Forced : No
Text #1
ID : 3
Format : UTF-8
Codec ID : S_TEXT/UTF8
Codec ID/Info : UTF-8 Plain Text
Language : Russian
Default : No
Forced : No
Text #2
ID : 4
Format : UTF-8
Codec ID : S_TEXT/UTF8
Codec ID/Info : UTF-8 Plain Text
Language : English
Default : No
Forced : No
Text #3
ID : 5
Format : UTF-8
Codec ID : S_TEXT/UTF8
Codec ID/Info : UTF-8 Plain Text
Language : French
Default : No
Forced : No
Text #4
ID : 6
Format : UTF-8
Codec ID : S_TEXT/UTF8
Codec ID/Info : UTF-8 Plain Text
Language : German
Default : No
Forced : No
Text #5
ID : 7
Format : UTF-8
Codec ID : S_TEXT/UTF8
Codec ID/Info : UTF-8 Plain Text
Language : Dutch
Default : No
Forced : No
Скриншот c названием фильма
Скриншоты
Резервные скриншоты

[4'006]
Download
Для скачивания .torrent файлов необходима регистрация
Сайт не распространяет и не хранит электронные версии произведений, а лишь предоставляет доступ к создаваемому пользователями каталогу ссылок на торрент-файлы, которые содержат только списки хеш-сумм
[Профиль]  [ЛС] 
 
Ответить
Loading...
Error