Зверополис / Zootopia (Байрон Ховард, Рич Мур, Джаред Буш) [2016, США, мультфильм, боевик, комедия, приключения, семейный, BDRip HD (1080p, 720p), SD (480p)] DUB, Original + SUB (rus, eng)

Страницы:  1

Ответить
Автор
Сообщение

yv_apple

Moderator

Стаж: 9 лет

Сообщений: 5684

yv_apple · 09-Июн-16 11:03 (3 года назад, ред. 17-Янв-17 21:19)

Зверополис / Zootopia
"Welcome to the urban jungle"
8.588 / 10

Год выпуска: 2016
Страна: США
Жанр: мультфильм, боевик, комедия, приключения, семейный
Продолжительность: 108 мин. (01:48:32)
Перевод: Профессиональный дублированный перевод
Оригинальная аудиодорожка: Есть
Субтитры: Русские полные, английские полные и английские полные SDH
Режиссёр: Байрон Ховард, Рич Мур, Джаред Буш
Сценарий: Джаред Буш, Фил Джонстон, Байрон Ховард
Продюсер: Кларк Спенсер, Моника Лаго-Кэйтис, Джон Лассетер
Композитор: Майкл Джаккино
Художник: Дэн Купер, Дэвид Гетц, Маттиас Лехнер
Монтаж: Джереми Милтон, Фабьен Роули
В ролях: Джиннифер Гудвин, Джейсон Бейтман, Идрис Эльба, Дженни Слейт, Нейт Торренс, Бонни Хант, Дон Лейк, Томми Чонг, Дж.К. Симмонс, Октавия Спенсер
Роли дублировали: Мария Ивакова, Антон Лаврентьев, Борис Хасанов, Мария Аронова, Андрей Мошков
Бюджет: $150 000 000
Сборы в США: $336 164 834
Сборы в мире: + $657 500 000 = $993 664 834
Сборы в России: $34 953 442
Мировая премьера: 11 февраля 2016
Премьера (РФ): 3 марта 2016, WDSSPR
Релиз на Blu-Ray: 3 июня 2016, Уолт Дисней Компани СНГ
Релиз на DVD: 3 июня 2016, Уолт Дисней Компани СНГ
Описание: Добро пожаловать в Зверополис - современный город, населенный самыми разными животными, от огромных слонов до крошечных мышек. Зверополис разделен на районы, полностью повторяющие естественную среду обитания разных жителей - здесь есть и элитный район Площадь Сахары и неприветливый Тундратаун. В этом городе появляется новый офицер полиции, жизнерадостная зайчиха Джуди Хоппс, которая с первых дней работы понимает, как сложно быть маленькой и пушистой среди больших и сильных полицейских. Джуди хватается за первую же возможность проявить себя, несмотря на то, что ее партнером будет болтливый хитрый лис Ник Уайлд. Вдвоем им предстоит раскрыть сложное дело, от которого будет зависеть судьба всех обитателей Зверополиса.
Качество исходника: Blu-Ray EUR 1080p (HDClub)
Качество: BDRip
Тип: 480p 720p 1080p
Контейнер: m4v
Видео: 640x356 анаморф 852x356 at 23.976 fps, MPEG-4 AVC, ~1200 kbps avg
Видео: 1280x536 at 23.976 fps, MPEG-4 AVC, ~4200 kbps avg
Видео: 1920x804 at 23.976 fps, MPEG-4 AVC, ~7000 kbps avg
Аудио#1: Russian: 48 kHz, ААС, 2/0 (L,R), ~160.00 kbps avg |Дубляж, Blu-Ray EUR|
Аудио#2: Ukrainian: 48 kHz, ААС, 2/0 (L,R), ~160.00 kbps avg |Дубляж, Disney / Buena Vista|
Аудио#3: English: 48 kHz, ААС, 2/0 (L,R), ~160.00 kbps avg
Аудио#4: English: 48 kHz, ААС, 2/0 (L,R), ~160.00 kbps avg |Descriptive|
Аудио#5: Russian: 48 kHz, AC3, 3/2 (L,C,R,l,r) + LFE ch, ~640.00 kbps avg |Дубляж, Blu-Ray EUR|
Аудио#6: Ukrainian: 48 kHz, AC3, 3/2 (L,C,R,l,r) + LFE ch, ~640.00 kbps avg |Дубляж, Disney / Buena Vista|
Аудио#7: English: 48 kHz, AC3, 3/2 (L,C,R,l,r) + LFE ch, ~640.00 kbps avg
Субтитры №1: Russian: |Полные, iTunes|
Субтитры №2: English: |Полные, iTunes|
Субтитры №3: English: |Полные|
Субтитры №4: English: |Полные, SDH|
Знаете ли Вы, что...
  1. Это первый из двух анимационных фильмов с участием Идриса Эльбы, предназначенный к выходу в 2016 году. Вторым будет «В поисках Дори».
  2. Это первый анимационный фильм студии «Disney» после мультфильма «Медвежонок Винни и его друзья» (2011), премьера которого состоится не в ноябре.
  3. Это уже третий мультфильм студии «Disney», в котором действуют антропоморфные животные и в котором нет ни людей, ни не-антропоморфных животных. Первыми двумя были «Робин Гуд» (1973) и «Цыплёнок Цыпа» (2005).
  4. В анимационном «Городе героев» (2014) в эпизоде полёта Бэймакса и Хиро можно увидеть постер «Зверополиса».
  5. На футляре телефона Хани Лемон из «Города героев» (2014) изображено главное действующее лицо «Зверополиса».
  6. Персонаж Ника Уайлда срисован с диснеевского Робина Гуда из одноимённого мультфильма, который тоже был лисом.
  7. Для актёра Алана Тьюдика это работа уже в четвёртом подряд мультфильме, который продюсирует «Walt Disney Animation Studios», после «Ральфа» (2012), «Холодного сердца» (2013) и «Города героев»(2014).
  8. Дюка Хорьковица (в оригинале англ. Duke Weaselton) озвучивает Алан Тьюдик, который также озвучил герцога Варавского (в оригинале англ. Duke of Weselton) в мультфильме «Холодное сердце» (2013). Герцог по-английски «duke».
  9. Персонаж Джуди Хоппс в исполнении Джиннифер Гудвин назван в честь персонажа Джуди Хоффс в исполнении Холли Робинсон Пит из сериала «Джамп стрит, 21» (1987).

iTunes Meta Tags for country ru
Код:
Name: Зверополис
Artist: Byron Howard & Rich Moore
Genre: Kids & Family
Release Date: 2016-02-11T08:00:00Z
Description: Добро пожаловать в Зверополис - современный город, населенный самыми разными животными, от огромных слонов до крошечных мышек. Зверополис разделен на районы, полностью повторяющие естественную среду обитания разных жителей - здесь есть и элитный район Площадь Сахары и неприветливый Тундратаун...
Long Description: Добро пожаловать в Зверополис - современный город, населенный самыми разными животными, от огромных слонов до крошечных мышек. Зверополис разделен на районы, полностью повторяющие естественную среду обитания разных жителей - здесь есть и элитный район Площадь Сахары и неприветливый Тундратаун. В этом городе появляется новый офицер полиции, жизнерадостная зайчиха Джуди Хоппс, которая с первых дней работы понимает, как сложно быть маленькой и пушистой среди больших и сильных полицейских. Джуди хватается за первую же возможность проявить себя, несмотря на то, что ее партнером будет болтливый хитрый лис Ник Уайлд. Вдвоем им предстоит раскрыть сложное дело, от которого будет зависеть судьба всех обитателей Зверополиса.
Rating: 6+
Rating Annotation: Rated 6+ Для зрителей, достигших возраста 6 лет
Studio: Walt Disney Animation Studios
Cast: Джиннифер Гудвин, Джейсон Бейтман, Идрис Эльба, Дженни Слейт, Нейт Торренс, Бонни Хант, Дон Лейк, Томми Чонг, Дж.К. Симмонс, Октавия Спенсер
Director: Байрон Ховард, Рич Мур, Джаред Буш
Producers: Кларк Спенсер, Моника Лаго-Кэйтис, Джон Лассетер
Screenwriters: Джаред Буш, Фил Джонстон, Байрон Ховард
Copyright: © 2016 Disney Enterprises, Inc. All Rights Reserved.
contentID: 1085163879
XID: Apple:vendor_id:2016-775276
Sort Name: Зверополис
iTunes Meta Tags for country us
Код:
Name: Zootopia
Artist: Rich Moore & Byron Howard
Genre: Kids & Family
Release Date: 2016-02-11T08:00:00Z
Description: Добро пожаловать в Зверополис - современный город, населенный самыми разными животными, от огромных слонов до крошечных мышек. Зверополис разделен на районы, полностью повторяющие естественную среду обитания разных жителей - здесь есть и элитный район Площадь Сахары и неприветливый Тундратаун...
Long Description: Добро пожаловать в Зверополис - современный город, населенный самыми разными животными, от огромных слонов до крошечных мышек. Зверополис разделен на районы, полностью повторяющие естественную среду обитания разных жителей - здесь есть и элитный район Площадь Сахары и неприветливый Тундратаун. В этом городе появляется новый офицер полиции, жизнерадостная зайчиха Джуди Хоппс, которая с первых дней работы понимает, как сложно быть маленькой и пушистой среди больших и сильных полицейских. Джуди хватается за первую же возможность проявить себя, несмотря на то, что ее партнером будет болтливый хитрый лис Ник Уайлд. Вдвоем им предстоит раскрыть сложное дело, от которого будет зависеть судьба всех обитателей Зверополиса.
Rating: PG
Rating Annotation: Rated PG for some thematic elements, rude humor and action.
Studio: Walt Disney Animation Studios
Cast: Джиннифер Гудвин, Джейсон Бейтман, Идрис Эльба, Дженни Слейт, Нейт Торренс, Бонни Хант, Дон Лейк, Томми Чонг, Дж.К. Симмонс, Октавия Спенсер
Director: Байрон Ховард, Рич Мур, Джаред Буш
Producers: Кларк Спенсер, Моника Лаго-Кэйтис, Джон Лассетер
Screenwriters: Джаред Буш, Фил Джонстон, Байрон Ховард
Copyright: © 2016 Disney Enterprises, Inc. All Rights Reserved.
contentID: 1084138493
XID: Apple:vendor_id:2016-775276
Sort Name: Zootopia
MediaInfo 480p Release
Код:
General
Complete name                            : Zootopia.m4v
Format                                   : MPEG-4
Codec ID                                 : M4V  (M4V /M4A /mp42/isom)
File size                                : 1.42 GiB
Duration                                 : 1h 48mn
Overall bit rate mode                    : Variable
Overall bit rate                         : 1 873 Kbps
Movie name                               : Zootopia
Performer                                : Rich Moore & Byron Howard
Director                                 : Байрон Ховард / Рич Мур / Джаред Буш
Actor                                    : Джиннифер Гудвин / Джейсон Бейтман / Идрис Эльба / Дженни Слейт / Нейт Торренс / Бонни Хант / Дон Лейк / Томми Чонг / Дж.К. Симмонс / Октавия Спенсер
Screenplay by                            : Джаред Буш / Фил Джонстон / Байрон Ховард
Producer                                 : Кларк Спенсер / Моника Лаго-Кэйтис / Джон Лассетер
Production studio                        : Walt Disney Animation Studios
Genre                                    : Kids & Family
ContentType                              : Short Film
Description                              : Добро пожаловать в Зверополис - современный город, населенный самыми разными животными, от огромных слонов до крошечных мышек. Зверополис разделен на районы, полностью повторяющие естественную среду обитания разных жителей - здесь есть и элитный район Площадь Сахары и неприветливый Тундратаун...
Recorded date                            : UTC 2016-02-11 08:00:00
Encoded date                             : UTC 2017-01-15 10:02:12
Tagged date                              : UTC 2017-01-15 10:16:53
Copyright                                : © 2016 Disney Enterprises, Inc. All Rights Reserved.
Cover                                    : Yes
Rating                                   : None
Title/Sort                               : Zootopia
LongDescription                          : Добро пожаловать в Зверополис - современный город, населенный самыми разными животными, от огромных слонов до крошечных мышек. Зверополис разделен на районы, полностью повторяющие естественную среду обитания разных жителей - здесь есть и элитный район Площадь Сахары и неприветливый Тундратаун. В этом городе появляется новый офицер полиции, жизнерадостная зайчиха Джуди Хоппс, которая с первых дней работы понимает, как сложно быть маленькой и пушистой среди больших и сильных полицейских. Джуди хватается за первую же возможность проявить себя, несмотря на то, что ее партнером будет болтливый хитрый лис Ник Уайлд. Вдвоем им предстоит раскрыть сложное дело, от которого будет зависеть судьба всех обитателей Зверополиса.
AppleStoreCatalogID                      : 1084138493
Vendor                                   : Apple:vendor_id:2016-775276
ContentRating                            : mpaa|PG|200|Rated PG for some thematic elements, rude humor and action.
Video #1
ID                                       : 1
Format                                   : AVC
Format/Info                              : Advanced Video Codec
Format profile                           : [email protected]
Format settings, CABAC                   : No
Format settings, ReFrames                : 2 frames
Codec ID                                 : avc1
Codec ID/Info                            : Advanced Video Coding
Duration                                 : 1h 48mn
Bit rate                                 : 1 200 Kbps
Width                                    : 640 pixels
Height                                   : 356 pixels
Display aspect ratio                     : 2.40:1
Frame rate mode                          : Variable
Frame rate                               : 23.976 (24000/1001) fps
Minimum frame rate                       : 23.810 fps
Maximum frame rate                       : 24.390 fps
Color space                              : YUV
Chroma subsampling                       : 4:2:0
Bit depth                                : 8 bits
Scan type                                : Progressive
Bits/(Pixel*Frame)                       : 0.220
Stream size                              : 933 MiB (64%)
Title                                    : Main Program
Writing library                          : x264 core 142 r2479 dd79a61
Encoding settings                        : cabac=0 / ref=2 / deblock=1:0:0 / analyse=0x1:0x111 / me=umh / subme=6 / psy=1 / psy_rd=1.00:0.00 / mixed_ref=1 / me_range=16 / chroma_me=1 / trellis=0 / 8x8dct=0 / cqm=0 / deadzone=21,11 / fast_pskip=1 / chroma_qp_offset=-2 / threads=18 / lookahead_threads=2 / sliced_threads=0 / nr=0 / decimate=1 / interlaced=0 / bluray_compat=0 / constrained_intra=0 / bframes=0 / weightp=0 / keyint=240 / keyint_min=24 / scenecut=40 / intra_refresh=0 / rc_lookahead=40 / rc=2pass / mbtree=1 / bitrate=1200 / ratetol=1.0 / qcomp=0.60 / qpmin=0 / qpmax=69 / qpstep=4 / cplxblur=20.0 / qblur=0.5 / vbv_maxrate=5000 / vbv_bufsize=5000 / nal_hrd=none / filler=0 / ip_ratio=1.40 / aq=1:1.00
Language                                 : English
Encoded date                             : UTC 2017-01-15 10:02:12
Tagged date                              : UTC 2017-01-15 10:03:37
Color range                              : Limited
Color primaries                          : BT.709
Transfer characteristics                 : BT.709
Matrix coefficients                      : BT.709
Menus                                    : 10,11
Video #2
ID                                       : 11
Format                                   : JPEG
Codec ID                                 : jpeg
Duration                                 : 1h 48mn
Bit rate mode                            : Variable
Bit rate                                 : 841 bps
Width                                    : 640 pixels
Height                                   : 267 pixels
Display aspect ratio                     : 2.40:1
Frame rate mode                          : Variable
Frame rate                               : 0.003 fps
Minimum frame rate                       : 0.001 fps
Maximum frame rate                       : 0.017 fps
Color space                              : YUV
Chroma subsampling                       : 4:2:0
Bit depth                                : 8 bits
Compression mode                         : Lossy
Bits/(Pixel*Frame)                       : 1.641
Stream size                              : 752 KiB (0%)
Title                                    : Chapter Images
Language                                 : English
Default                                  : No
Encoded date                             : UTC 2017-01-15 10:03:50
Tagged date                              : UTC 2017-01-15 10:03:51
Menu For                                 : 1
Audio #1
ID                                       : 2
Format                                   : AAC
Format/Info                              : Advanced Audio Codec
Format profile                           : LC
Codec ID                                 : 40
Duration                                 : 1h 48mn
Bit rate mode                            : Variable
Bit rate                                 : 166 Kbps
Maximum bit rate                         : 263 Kbps
Channel(s)                               : 2 channels
Channel positions                        : Front: L R
Sampling rate                            : 48.0 KHz
Frame rate                               : 46.875 fps (1024 spf)
Compression mode                         : Lossy
Stream size                              : 129 MiB (9%)
Title                                    : Russian DUB from Blu-Ray EUR Stereo
Language                                 : Russian
Default                                  : Yes
Alternate group                          : 1
Encoded date                             : UTC 2017-01-15 10:02:12
Tagged date                              : UTC 2017-01-15 10:02:59
Menus                                    : 10
Audio #2
ID                                       : 3
Format                                   : AAC
Format/Info                              : Advanced Audio Codec
Format profile                           : LC
Codec ID                                 : 40
Duration                                 : 1h 48mn
Bit rate mode                            : Variable
Bit rate                                 : 166 Kbps
Maximum bit rate                         : 263 Kbps
Channel(s)                               : 2 channels
Channel positions                        : Front: L R
Sampling rate                            : 48.0 KHz
Frame rate                               : 46.875 fps (1024 spf)
Compression mode                         : Lossy
Stream size                              : 129 MiB (9%)
Title                                    : Ukrainian DUB Disney / Buena Vista Stereo
Language                                 : Ukrainian
Default                                  : No
Alternate group                          : 1
Encoded date                             : UTC 2017-01-15 10:02:12
Tagged date                              : UTC 2017-01-15 10:03:44
Audio #3
ID                                       : 4
Format                                   : AAC
Format/Info                              : Advanced Audio Codec
Format profile                           : LC
Codec ID                                 : 40
Duration                                 : 1h 48mn
Bit rate mode                            : Variable
Bit rate                                 : 166 Kbps
Maximum bit rate                         : 274 Kbps
Channel(s)                               : 2 channels
Channel positions                        : Front: L R
Sampling rate                            : 48.0 KHz
Frame rate                               : 46.875 fps (1024 spf)
Compression mode                         : Lossy
Stream size                              : 129 MiB (9%)
Title                                    : English Stereo
Language                                 : English
Default                                  : No
Alternate group                          : 1
Encoded date                             : UTC 2017-01-15 10:02:12
Tagged date                              : UTC 2017-01-15 10:02:59
Audio #4
ID                                       : 5
Format                                   : AAC
Format/Info                              : Advanced Audio Codec
Format profile                           : LC
Codec ID                                 : 40
Duration                                 : 1h 48mn
Bit rate mode                            : Variable
Bit rate                                 : 164 Kbps
Maximum bit rate                         : 267 Kbps
Channel(s)                               : 2 channels
Channel positions                        : Front: L R
Sampling rate                            : 48.0 KHz
Frame rate                               : 46.875 fps (1024 spf)
Compression mode                         : Lossy
Stream size                              : 128 MiB (9%)
Title                                    : English Descriptive Stereo
Language                                 : English
Default                                  : No
Alternate group                          : 1
Encoded date                             : UTC 2017-01-15 10:02:12
Tagged date                              : UTC 2017-01-15 10:02:59
Text #1
ID                                       : 6
Format                                   : Timed Text
Muxing mode                              : sbtl
Codec ID                                 : tx3g
Duration                                 : 1h 39mn
Bit rate mode                            : Variable
Bit rate                                 : 129 bps
Stream size                              : 94.8 KiB (0%)
Title                                    : Russian from iTunes Subtitle
Language                                 : Russian
Default                                  : Yes
Forced                                   : No
Alternate group                          : 2
Encoded date                             : UTC 2017-01-15 10:02:12
Tagged date                              : UTC 2017-01-15 10:02:13
Text #2
ID                                       : 7
Format                                   : Timed Text
Muxing mode                              : sbtl
Codec ID                                 : tx3g
Duration                                 : 1h 39mn
Bit rate mode                            : Variable
Bit rate                                 : 80 bps
Stream size                              : 58.4 KiB (0%)
Title                                    : English from iTunes Subtitle
Language                                 : English
Default                                  : No
Forced                                   : No
Alternate group                          : 2
Encoded date                             : UTC 2017-01-15 10:02:12
Tagged date                              : UTC 2017-01-15 10:02:13
Text #3
ID                                       : 8
Format                                   : Timed Text
Muxing mode                              : sbtl
Codec ID                                 : tx3g
Duration                                 : 1h 39mn
Bit rate mode                            : Variable
Bit rate                                 : 87 bps
Stream size                              : 63.9 KiB (0%)
Title                                    : English Subtitle
Language                                 : English
Default                                  : No
Forced                                   : No
Alternate group                          : 2
Encoded date                             : UTC 2017-01-15 10:02:12
Tagged date                              : UTC 2017-01-15 10:02:13
Text #4
ID                                       : 9
Format                                   : Timed Text
Muxing mode                              : sbtl
Codec ID                                 : tx3g
Duration                                 : 1h 46mn
Bit rate mode                            : Variable
Bit rate                                 : 99 bps
Stream size                              : 77.5 KiB (0%)
Title                                    : English SDH Subtitle
Language                                 : English
Default                                  : No
Forced                                   : No
Alternate group                          : 2
Encoded date                             : UTC 2017-01-15 10:02:12
Tagged date                              : UTC 2017-01-15 10:02:13
Menu #1
00:00:00.000                             : 01. Opening Credits
00:00:59.559                             : 02. Gideon Grey
00:05:50.100                             : 03. The Police Academy
00:10:05.563                             : 04. Welcome to Zootopia
00:14:31.537                             : 05. Meter Maid Duty
00:18:24.019                             : 06. Pawpsicles
00:26:03.353                             : 07. The Weasel Chase
00:30:57.439                             : 08. It's Called a Hustle
00:37:07.100                             : 09. The Naturalist Club
00:40:43.441                             : 10. Department of Mammal Vehicles
00:44:31.752                             : 11. Mr. Big
00:51:40.430                             : 12. Manchas Goes Savage
00:55:40.378                             : 13. The Gondola
01:00:48.269                             : 14. Help From Bellwether
01:03:37.855                             : 15. Cliffside Asylum
01:09:19.822                             : 16. We Cracked The Case
01:13:39.165                             : 17. Hopps Gives Up
01:17:07.372                             : 18. Hopps' Apology
01:21:52.366                             : 19. Doug's Laboratory
01:28:19.169                             : 20. The Natural History Museum
01:32:43.433                             : 21. Epilogue
01:36:12.141                             : 22. Closing Credits
Menu #2
ID                                       : 10
Codec ID                                 : text
Duration                                 : 1h 48mn
Title                                    : Chapter Titles
Language                                 : English
Encoded date                             : UTC 2017-01-15 10:03:44
Tagged date                              : UTC 2017-01-15 10:03:44
Menu For                                 : 2,1
00:00:00.000                             : 01. Opening Credits
00:00:59.559                             : 02. Gideon Grey
00:05:50.100                             : 03. The Police Academy
00:10:05.563                             : 04. Welcome to Zootopia
00:14:31.537                             : 05. Meter Maid Duty
00:18:24.019                             : 06. Pawpsicles
00:26:03.353                             : 07. The Weasel Chase
00:30:57.439                             : 08. It's Called a Hustle
00:37:07.100                             : 09. The Naturalist Club
00:40:43.441                             : 10. Department of Mammal Vehicles
00:44:31.752                             : 11. Mr. Big
00:51:40.430                             : 12. Manchas Goes Savage
00:55:40.378                             : 13. The Gondola
01:00:48.269                             : 14. Help From Bellwether
01:03:37.855                             : 15. Cliffside Asylum
01:09:19.822                             : 16. We Cracked The Case
01:13:39.165                             : 17. Hopps Gives Up
01:17:07.372                             : 18. Hopps' Apology
01:21:52.366                             : 19. Doug's Laboratory
01:28:19.169                             : 20. The Natural History Museum
01:32:43.433                             : 21. Epilogue
01:36:12.141                             : 22. Closing Credits
Bit rate mode                            : VBR
MediaInfo 720p Release
Код:
General
Complete name                            : Zootopia (HD).m4v
Format                                   : MPEG-4
Codec ID                                 : M4V  (M4V /M4A /mp42/isom)
File size                                : 5.15 GiB
Duration                                 : 1h 48mn
Overall bit rate mode                    : Variable
Overall bit rate                         : 6 775 Kbps
Movie name                               : Zootopia
Performer                                : Rich Moore & Byron Howard
Director                                 : Байрон Ховард / Рич Мур / Джаред Буш
Actor                                    : Джиннифер Гудвин / Джейсон Бейтман / Идрис Эльба / Дженни Слейт / Нейт Торренс / Бонни Хант / Дон Лейк / Томми Чонг / Дж.К. Симмонс / Октавия Спенсер
Screenplay by                            : Джаред Буш / Фил Джонстон / Байрон Ховард
Producer                                 : Кларк Спенсер / Моника Лаго-Кэйтис / Джон Лассетер
Production studio                        : Walt Disney Animation Studios
Genre                                    : Kids & Family
ContentType                              : Short Film
Description                              : Добро пожаловать в Зверополис - современный город, населенный самыми разными животными, от огромных слонов до крошечных мышек. Зверополис разделен на районы, полностью повторяющие естественную среду обитания разных жителей - здесь есть и элитный район Площадь Сахары и неприветливый Тундратаун...
Recorded date                            : UTC 2016-02-11 08:00:00
Encoded date                             : UTC 2017-01-15 09:10:14
Tagged date                              : UTC 2017-01-15 09:40:12
Copyright                                : © 2016 Disney Enterprises, Inc. All Rights Reserved.
Cover                                    : Yes
Rating                                   : None
Title/Sort                               : Zootopia
LongDescription                          : Добро пожаловать в Зверополис - современный город, населенный самыми разными животными, от огромных слонов до крошечных мышек. Зверополис разделен на районы, полностью повторяющие естественную среду обитания разных жителей - здесь есть и элитный район Площадь Сахары и неприветливый Тундратаун. В этом городе появляется новый офицер полиции, жизнерадостная зайчиха Джуди Хоппс, которая с первых дней работы понимает, как сложно быть маленькой и пушистой среди больших и сильных полицейских. Джуди хватается за первую же возможность проявить себя, несмотря на то, что ее партнером будет болтливый хитрый лис Ник Уайлд. Вдвоем им предстоит раскрыть сложное дело, от которого будет зависеть судьба всех обитателей Зверополиса.
HDVideo                                  : Yes
AppleStoreCatalogID                      : 1084138493
Vendor                                   : Apple:vendor_id:2016-775276
ContentRating                            : mpaa|PG|200|Rated PG for some thematic elements, rude humor and action.
Video #1
ID                                       : 1
Format                                   : AVC
Format/Info                              : Advanced Video Codec
Format profile                           : [email protected]
Format settings, CABAC                   : No
Format settings, ReFrames                : 3 frames
Codec ID                                 : avc1
Codec ID/Info                            : Advanced Video Coding
Duration                                 : 1h 48mn
Source duration                          : 1h 48mn
Bit rate                                 : 4 200 Kbps
Width                                    : 1 280 pixels
Height                                   : 536 pixels
Display aspect ratio                     : 2.40:1
Frame rate mode                          : Variable
Frame rate                               : 23.976 (24000/1001) fps
Minimum frame rate                       : 23.810 fps
Maximum frame rate                       : 24.390 fps
Color space                              : YUV
Chroma subsampling                       : 4:2:0
Bit depth                                : 8 bits
Scan type                                : Progressive
Bits/(Pixel*Frame)                       : 0.255
Stream size                              : 3.17 GiB (62%)
Source stream size                       : 3.17 GiB (62%)
Title                                    : Main Program
Writing library                          : x264 core 142 r2479 dd79a61
Encoding settings                        : cabac=0 / ref=3 / deblock=1:0:0 / analyse=0x3:0x113 / me=umh / subme=9 / psy=1 / psy_rd=0.50:0.00 / mixed_ref=1 / me_range=32 / chroma_me=1 / trellis=0 / 8x8dct=1 / cqm=0 / deadzone=21,11 / fast_pskip=0 / chroma_qp_offset=-2 / threads=18 / lookahead_threads=1 / sliced_threads=0 / nr=0 / decimate=0 / interlaced=0 / bluray_compat=0 / constrained_intra=0 / bframes=3 / b_pyramid=0 / b_adapt=2 / b_bias=0 / direct=1 / weightb=0 / open_gop=0 / weightp=0 / keyint=240 / keyint_min=24 / scenecut=40 / intra_refresh=0 / rc_lookahead=40 / rc=2pass / mbtree=1 / bitrate=4200 / ratetol=1.0 / qcomp=0.60 / qpmin=0 / qpmax=51 / qpstep=4 / cplxblur=20.0 / qblur=0.5 / vbv_maxrate=9500 / vbv_bufsize=9500 / nal_hrd=none / filler=0 / ip_ratio=1.40 / aq=1:0.70
Language                                 : English
Encoded date                             : UTC 2017-01-15 09:10:14
Tagged date                              : UTC 2017-01-15 09:13:37
Color range                              : Limited
Color primaries                          : BT.709
Transfer characteristics                 : BT.709
Matrix coefficients                      : BT.709
Menus                                    : 13,14
Video #2
ID                                       : 14
Format                                   : JPEG
Codec ID                                 : jpeg
Duration                                 : 1h 48mn
Bit rate mode                            : Variable
Bit rate                                 : 902 bps
Width                                    : 640 pixels
Height                                   : 268 pixels
Display aspect ratio                     : 2.40:1
Frame rate mode                          : Variable
Frame rate                               : 0.003 fps
Minimum frame rate                       : 0.001 fps
Maximum frame rate                       : 0.017 fps
Color space                              : YUV
Chroma subsampling                       : 4:2:0
Bit depth                                : 8 bits
Compression mode                         : Lossy
Bits/(Pixel*Frame)                       : 1.753
Stream size                              : 807 KiB (0%)
Title                                    : Chapter Images
Language                                 : English
Default                                  : No
Encoded date                             : UTC 2017-01-15 09:14:04
Tagged date                              : UTC 2017-01-15 09:14:05
Menu For                                 : 1
Audio #1
ID                                       : 2
Format                                   : AAC
Format/Info                              : Advanced Audio Codec
Format profile                           : LC
Codec ID                                 : 40
Duration                                 : 1h 48mn
Bit rate mode                            : Variable
Bit rate                                 : 166 Kbps
Maximum bit rate                         : 263 Kbps
Channel(s)                               : 2 channels
Channel positions                        : Front: L R
Sampling rate                            : 48.0 KHz
Frame rate                               : 46.875 fps (1024 spf)
Compression mode                         : Lossy
Stream size                              : 129 MiB (2%)
Title                                    : Russian DUB from Blu-Ray EUR Stereo
Language                                 : Russian
Default                                  : Yes
Alternate group                          : 1
Encoded date                             : UTC 2017-01-15 09:10:14
Tagged date                              : UTC 2017-01-15 09:13:50
Fallback From                            : 6
Menus                                    : 13
Audio #2
ID                                       : 3
Format                                   : AAC
Format/Info                              : Advanced Audio Codec
Format profile                           : LC
Codec ID                                 : 40
Duration                                 : 1h 48mn
Bit rate mode                            : Variable
Bit rate                                 : 166 Kbps
Maximum bit rate                         : 263 Kbps
Channel(s)                               : 2 channels
Channel positions                        : Front: L R
Sampling rate                            : 48.0 KHz
Frame rate                               : 46.875 fps (1024 spf)
Compression mode                         : Lossy
Stream size                              : 129 MiB (2%)
Title                                    : Ukrainian DUB Disney / Buena Vista Stereo
Language                                 : Ukrainian
Default                                  : No
Alternate group                          : 1
Encoded date                             : UTC 2017-01-15 09:10:14
Tagged date                              : UTC 2017-01-15 09:13:40
Fallback From                            : 7
Audio #3
ID                                       : 4
Format                                   : AAC
Format/Info                              : Advanced Audio Codec
Format profile                           : LC
Codec ID                                 : 40
Duration                                 : 1h 48mn
Bit rate mode                            : Variable
Bit rate                                 : 166 Kbps
Maximum bit rate                         : 274 Kbps
Channel(s)                               : 2 channels
Channel positions                        : Front: L R
Sampling rate                            : 48.0 KHz
Frame rate                               : 46.875 fps (1024 spf)
Compression mode                         : Lossy
Stream size                              : 129 MiB (2%)
Title                                    : English Stereo
Language                                 : English
Default                                  : No
Alternate group                          : 1
Encoded date                             : UTC 2017-01-15 09:10:14
Tagged date                              : UTC 2017-01-15 09:13:40
Fallback From                            : 8
Audio #4
ID                                       : 5
Format                                   : AAC
Format/Info                              : Advanced Audio Codec
Format profile                           : LC
Codec ID                                 : 40
Duration                                 : 1h 48mn
Bit rate mode                            : Variable
Bit rate                                 : 164 Kbps
Maximum bit rate                         : 267 Kbps
Channel(s)                               : 2 channels
Channel positions                        : Front: L R
Sampling rate                            : 48.0 KHz
Frame rate                               : 46.875 fps (1024 spf)
Compression mode                         : Lossy
Stream size                              : 128 MiB (2%)
Title                                    : English Descriptive Stereo
Language                                 : English
Default                                  : No
Alternate group                          : 1
Encoded date                             : UTC 2017-01-15 09:10:14
Tagged date                              : UTC 2017-01-15 09:13:40
Audio #5
ID                                       : 6
Format                                   : AC-3
Format/Info                              : Audio Coding 3
Mode extension                           : CM (complete main)
Format settings, Endianness              : Big
Codec ID                                 : ac-3
Duration                                 : 1h 48mn
Bit rate mode                            : Constant
Bit rate                                 : 640 Kbps
Channel(s)                               : 6 channels
Channel positions                        : Front: L C R, Side: L R, LFE
Sampling rate                            : 48.0 KHz
Frame rate                               : 31.250 fps (1536 spf)
Bit depth                                : 16 bits
Compression mode                         : Lossy
Stream size                              : 498 MiB (9%)
Title                                    : Russian DUB from Blu-Ray EUR DD 5.1
Language                                 : Russian
Default                                  : Inherited From: 2
Alternate group                          : 1
Encoded date                             : UTC 2017-01-15 09:10:14
Tagged date                              : UTC 2017-01-15 09:13:30
Fallback To                              : 2
Audio #6
ID                                       : 7
Format                                   : AC-3
Format/Info                              : Audio Coding 3
Mode extension                           : CM (complete main)
Format settings, Endianness              : Big
Codec ID                                 : ac-3
Duration                                 : 1h 48mn
Bit rate mode                            : Constant
Bit rate                                 : 640 Kbps
Channel(s)                               : 6 channels
Channel positions                        : Front: L C R, Side: L R, LFE
Sampling rate                            : 48.0 KHz
Frame rate                               : 31.250 fps (1536 spf)
Bit depth                                : 16 bits
Compression mode                         : Lossy
Stream size                              : 497 MiB (9%)
Title                                    : Ukrainian DUB Disney / Buena Vista DD 5.1
Language                                 : Ukrainian
Default                                  : No
Alternate group                          : 1
Encoded date                             : UTC 2017-01-15 09:10:14
Tagged date                              : UTC 2017-01-15 09:13:32
Fallback To                              : 3
Audio #7
ID                                       : 8
Format                                   : AC-3
Format/Info                              : Audio Coding 3
Mode extension                           : CM (complete main)
Format settings, Endianness              : Big
Codec ID                                 : ac-3
Duration                                 : 1h 48mn
Bit rate mode                            : Constant
Bit rate                                 : 640 Kbps
Channel(s)                               : 6 channels
Channel positions                        : Front: L C R, Side: L R, LFE
Sampling rate                            : 48.0 KHz
Frame rate                               : 31.250 fps (1536 spf)
Bit depth                                : 16 bits
Compression mode                         : Lossy
Stream size                              : 498 MiB (9%)
Title                                    : English DD 5.1
Language                                 : English
Default                                  : No
Alternate group                          : 1
Encoded date                             : UTC 2017-01-15 09:10:14
Tagged date                              : UTC 2017-01-15 09:13:31
Fallback To                              : 4
Text #1
ID                                       : 9
Format                                   : Timed Text
Muxing mode                              : sbtl
Codec ID                                 : tx3g
Duration                                 : 1h 39mn
Bit rate mode                            : Variable
Bit rate                                 : 129 bps
Stream size                              : 94.8 KiB (0%)
Title                                    : Russian from iTunes Subtitle
Language                                 : Russian
Default                                  : Yes
Forced                                   : No
Alternate group                          : 2
Encoded date                             : UTC 2017-01-15 09:10:14
Tagged date                              : UTC 2017-01-15 09:10:16
Text #2
ID                                       : 10
Format                                   : Timed Text
Muxing mode                              : sbtl
Codec ID                                 : tx3g
Duration                                 : 1h 39mn
Bit rate mode                            : Variable
Bit rate                                 : 80 bps
Stream size                              : 58.4 KiB (0%)
Title                                    : English from iTunes Subtitle
Language                                 : English
Default                                  : No
Forced                                   : No
Alternate group                          : 2
Encoded date                             : UTC 2017-01-15 09:10:14
Tagged date                              : UTC 2017-01-15 09:10:16
Text #3
ID                                       : 11
Format                                   : Timed Text
Muxing mode                              : sbtl
Codec ID                                 : tx3g
Duration                                 : 1h 39mn
Bit rate mode                            : Variable
Bit rate                                 : 87 bps
Stream size                              : 63.9 KiB (0%)
Title                                    : English Subtitle
Language                                 : English
Default                                  : No
Forced                                   : No
Alternate group                          : 2
Encoded date                             : UTC 2017-01-15 09:10:14
Tagged date                              : UTC 2017-01-15 09:10:15
Text #4
ID                                       : 12
Format                                   : Timed Text
Muxing mode                              : sbtl
Codec ID                                 : tx3g
Duration                                 : 1h 46mn
Bit rate mode                            : Variable
Bit rate                                 : 99 bps
Stream size                              : 77.5 KiB (0%)
Title                                    : English SDH Subtitle
Language                                 : English
Default                                  : No
Forced                                   : No
Alternate group                          : 2
Encoded date                             : UTC 2017-01-15 09:10:14
Tagged date                              : UTC 2017-01-15 09:10:17
Menu #1
00:00:00.000                             : 01. Opening Credits
00:00:59.559                             : 02. Gideon Grey
00:05:50.100                             : 03. The Police Academy
00:10:05.563                             : 04. Welcome to Zootopia
00:14:31.537                             : 05. Meter Maid Duty
00:18:24.019                             : 06. Pawpsicles
00:26:03.353                             : 07. The Weasel Chase
00:30:57.439                             : 08. It's Called a Hustle
00:37:07.100                             : 09. The Naturalist Club
00:40:43.441                             : 10. Department of Mammal Vehicles
00:44:31.752                             : 11. Mr. Big
00:51:40.430                             : 12. Manchas Goes Savage
00:55:40.378                             : 13. The Gondola
01:00:48.269                             : 14. Help From Bellwether
01:03:37.855                             : 15. Cliffside Asylum
01:09:19.822                             : 16. We Cracked The Case
01:13:39.165                             : 17. Hopps Gives Up
01:17:07.372                             : 18. Hopps' Apology
01:21:52.366                             : 19. Doug's Laboratory
01:28:19.169                             : 20. The Natural History Museum
01:32:43.433                             : 21. Epilogue
01:36:12.141                             : 22. Closing Credits
Menu #2
ID                                       : 13
Codec ID                                 : text
Duration                                 : 1h 48mn
Title                                    : Chapter Titles
Language                                 : English
Encoded date                             : UTC 2017-01-15 09:13:50
Tagged date                              : UTC 2017-01-15 09:13:50
Menu For                                 : 2,1
00:00:00.000                             : 01. Opening Credits
00:00:59.559                             : 02. Gideon Grey
00:05:50.100                             : 03. The Police Academy
00:10:05.563                             : 04. Welcome to Zootopia
00:14:31.537                             : 05. Meter Maid Duty
00:18:24.019                             : 06. Pawpsicles
00:26:03.353                             : 07. The Weasel Chase
00:30:57.439                             : 08. It's Called a Hustle
00:37:07.100                             : 09. The Naturalist Club
00:40:43.441                             : 10. Department of Mammal Vehicles
00:44:31.752                             : 11. Mr. Big
00:51:40.430                             : 12. Manchas Goes Savage
00:55:40.378                             : 13. The Gondola
01:00:48.269                             : 14. Help From Bellwether
01:03:37.855                             : 15. Cliffside Asylum
01:09:19.822                             : 16. We Cracked The Case
01:13:39.165                             : 17. Hopps Gives Up
01:17:07.372                             : 18. Hopps' Apology
01:21:52.366                             : 19. Doug's Laboratory
01:28:19.169                             : 20. The Natural History Museum
01:32:43.433                             : 21. Epilogue
01:36:12.141                             : 22. Closing Credits
Bit rate mode                            : VBR
MediaInfo 1080p Release
Код:
General
Complete name                            : Zootopia (1080p HD).m4v
Format                                   : MPEG-4
Codec ID                                 : M4V  (M4V /M4A /mp42/isom)
File size                                : 7.29 GiB
Duration                                 : 1h 48mn
Overall bit rate mode                    : Variable
Overall bit rate                         : 9 593 Kbps
Movie name                               : Zootopia
Performer                                : Rich Moore & Byron Howard
Director                                 : Байрон Ховард / Рич Мур / Джаред Буш
Actor                                    : Джиннифер Гудвин / Джейсон Бейтман / Идрис Эльба / Дженни Слейт / Нейт Торренс / Бонни Хант / Дон Лейк / Томми Чонг / Дж.К. Симмонс / Октавия Спенсер
Screenplay by                            : Джаред Буш / Фил Джонстон / Байрон Ховард
Producer                                 : Кларк Спенсер / Моника Лаго-Кэйтис / Джон Лассетер
Production studio                        : Walt Disney Animation Studios
Genre                                    : Kids & Family
ContentType                              : Short Film
Description                              : Добро пожаловать в Зверополис - современный город, населенный самыми разными животными, от огромных слонов до крошечных мышек. Зверополис разделен на районы, полностью повторяющие естественную среду обитания разных жителей - здесь есть и элитный район Площадь Сахары и неприветливый Тундратаун...
Recorded date                            : UTC 2016-02-11 08:00:00
Encoded date                             : UTC 2017-01-15 06:57:07
Tagged date                              : UTC 2017-01-15 07:17:28
Copyright                                : © 2016 Disney Enterprises, Inc. All Rights Reserved.
Cover                                    : Yes
Rating                                   : None
Title/Sort                               : Zootopia
LongDescription                          : Добро пожаловать в Зверополис - современный город, населенный самыми разными животными, от огромных слонов до крошечных мышек. Зверополис разделен на районы, полностью повторяющие естественную среду обитания разных жителей - здесь есть и элитный район Площадь Сахары и неприветливый Тундратаун. В этом городе появляется новый офицер полиции, жизнерадостная зайчиха Джуди Хоппс, которая с первых дней работы понимает, как сложно быть маленькой и пушистой среди больших и сильных полицейских. Джуди хватается за первую же возможность проявить себя, несмотря на то, что ее партнером будет болтливый хитрый лис Ник Уайлд. Вдвоем им предстоит раскрыть сложное дело, от которого будет зависеть судьба всех обитателей Зверополиса.
AppleStoreCatalogID                      : 1084138493
Vendor                                   : Apple:vendor_id:2016-775276
ContentRating                            : mpaa|PG|200|Rated PG for some thematic elements, rude humor and action.
Video #1
ID                                       : 1
Format                                   : AVC
Format/Info                              : Advanced Video Codec
Format profile                           : [email protected]
Format settings, CABAC                   : Yes
Format settings, ReFrames                : 4 frames
Codec ID                                 : avc1
Codec ID/Info                            : Advanced Video Coding
Duration                                 : 1h 48mn
Source duration                          : 1h 48mn
Bit rate                                 : 7 000 Kbps
Width                                    : 1 920 pixels
Height                                   : 804 pixels
Display aspect ratio                     : 2.40:1
Frame rate mode                          : Variable
Frame rate                               : 23.976 (24000/1001) fps
Minimum frame rate                       : 23.974 fps
Maximum frame rate                       : 23.981 fps
Color space                              : YUV
Chroma subsampling                       : 4:2:0
Bit depth                                : 8 bits
Scan type                                : Progressive
Bits/(Pixel*Frame)                       : 0.189
Stream size                              : 5.31 GiB (73%)
Source stream size                       : 5.31 GiB (73%)
Title                                    : Main Program
Writing library                          : x264 core 148 r2708 86b7198
Encoding settings                        : cabac=1 / ref=4 / deblock=1:0:0 / analyse=0x3:0x133 / me=umh / subme=10 / psy=1 / psy_rd=0.50:0.00 / mixed_ref=1 / me_range=32 / chroma_me=1 / trellis=2 / 8x8dct=1 / cqm=0 / deadzone=21,11 / fast_pskip=0 / chroma_qp_offset=-2 / threads=18 / lookahead_threads=4 / sliced_threads=0 / nr=0 / decimate=0 / interlaced=0 / bluray_compat=0 / constrained_intra=0 / bframes=16 / b_pyramid=2 / b_adapt=2 / b_bias=0 / direct=3 / weightb=1 / open_gop=0 / weightp=2 / keyint=240 / keyint_min=24 / scenecut=40 / intra_refresh=0 / rc_lookahead=60 / rc=2pass / mbtree=1 / bitrate=7000 / ratetol=1.0 / qcomp=0.60 / qpmin=0 / qpmax=69 / qpstep=4 / cplxblur=20.0 / qblur=0.5 / vbv_maxrate=25000 / vbv_bufsize=25000 / nal_hrd=none / filler=0 / ip_ratio=1.40 / aq=1:0.70
Language                                 : English
Encoded date                             : UTC 2017-01-15 06:57:08
Tagged date                              : UTC 2017-01-15 07:02:56
Color range                              : Limited
Color primaries                          : BT.709
Transfer characteristics                 : BT.709
Matrix coefficients                      : BT.709
Menus                                    : 13,14
Video #2
ID                                       : 14
Format                                   : JPEG
Codec ID                                 : jpeg
Duration                                 : 1h 48mn
Bit rate mode                            : Variable
Bit rate                                 : 904 bps
Width                                    : 640 pixels
Height                                   : 268 pixels
Display aspect ratio                     : 2.40:1
Frame rate mode                          : Variable
Frame rate                               : 0.003 fps
Minimum frame rate                       : 0.001 fps
Maximum frame rate                       : 0.017 fps
Color space                              : YUV
Chroma subsampling                       : 4:2:0
Bit depth                                : 8 bits
Compression mode                         : Lossy
Bits/(Pixel*Frame)                       : 1.757
Stream size                              : 809 KiB (0%)
Title                                    : Chapter Images
Language                                 : English
Default                                  : No
Encoded date                             : UTC 2017-01-15 07:16:40
Tagged date                              : UTC 2017-01-15 07:16:41
Menu For                                 : 1
Audio #1
ID                                       : 2
Format                                   : AAC
Format/Info                              : Advanced Audio Codec
Format profile                           : LC
Codec ID                                 : 40
Duration                                 : 1h 48mn
Bit rate mode                            : Variable
Bit rate                                 : 166 Kbps
Maximum bit rate                         : 263 Kbps
Channel(s)                               : 2 channels
Channel positions                        : Front: L R
Sampling rate                            : 48.0 KHz
Frame rate                               : 46.875 fps (1024 spf)
Compression mode                         : Lossy
Stream size                              : 129 MiB (2%)
Title                                    : Russian DUB from Blu-Ray EUR Stereo
Language                                 : Russian
Default                                  : Yes
Alternate group                          : 1
Encoded date                             : UTC 2017-01-15 06:57:07
Tagged date                              : UTC 2017-01-15 07:03:22
Fallback From                            : 6
Menus                                    : 13
Audio #2
ID                                       : 3
Format                                   : AAC
Format/Info                              : Advanced Audio Codec
Format profile                           : LC
Codec ID                                 : 40
Duration                                 : 1h 48mn
Bit rate mode                            : Variable
Bit rate                                 : 166 Kbps
Maximum bit rate                         : 263 Kbps
Channel(s)                               : 2 channels
Channel positions                        : Front: L R
Sampling rate                            : 48.0 KHz
Frame rate                               : 46.875 fps (1024 spf)
Compression mode                         : Lossy
Stream size                              : 129 MiB (2%)
Title                                    : Ukrainian DUB Disney / Buena Vista Stereo
Language                                 : Ukrainian
Default                                  : No
Alternate group                          : 1
Encoded date                             : UTC 2017-01-15 06:57:08
Tagged date                              : UTC 2017-01-15 07:03:22
Fallback From                            : 7
Audio #3
ID                                       : 4
Format                                   : AAC
Format/Info                              : Advanced Audio Codec
Format profile                           : LC
Codec ID                                 : 40
Duration                                 : 1h 48mn
Bit rate mode                            : Variable
Bit rate                                 : 166 Kbps
Maximum bit rate                         : 274 Kbps
Channel(s)                               : 2 channels
Channel positions                        : Front: L R
Sampling rate                            : 48.0 KHz
Frame rate                               : 46.875 fps (1024 spf)
Compression mode                         : Lossy
Stream size                              : 129 MiB (2%)
Title                                    : English Stereo
Language                                 : English
Default                                  : No
Alternate group                          : 1
Encoded date                             : UTC 2017-01-15 06:57:08
Tagged date                              : UTC 2017-01-15 07:03:22
Fallback From                            : 8
Audio #4
ID                                       : 5
Format                                   : AAC
Format/Info                              : Advanced Audio Codec
Format profile                           : LC
Codec ID                                 : 40
Duration                                 : 1h 48mn
Bit rate mode                            : Variable
Bit rate                                 : 164 Kbps
Maximum bit rate                         : 267 Kbps
Channel(s)                               : 2 channels
Channel positions                        : Front: L R
Sampling rate                            : 48.0 KHz
Frame rate                               : 46.875 fps (1024 spf)
Compression mode                         : Lossy
Stream size                              : 128 MiB (2%)
Title                                    : English Descriptive Stereo
Language                                 : English
Default                                  : No
Alternate group                          : 1
Encoded date                             : UTC 2017-01-15 06:57:08
Tagged date                              : UTC 2017-01-15 07:03:21
Audio #5
ID                                       : 6
Format                                   : AC-3
Format/Info                              : Audio Coding 3
Mode extension                           : CM (complete main)
Format settings, Endianness              : Big
Codec ID                                 : ac-3
Duration                                 : 1h 48mn
Bit rate mode                            : Constant
Bit rate                                 : 640 Kbps
Channel(s)                               : 6 channels
Channel positions                        : Front: L C R, Side: L R, LFE
Sampling rate                            : 48.0 KHz
Frame rate                               : 31.250 fps (1536 spf)
Bit depth                                : 16 bits
Compression mode                         : Lossy
Stream size                              : 498 MiB (7%)
Title                                    : Russian DUB from Blu-Ray EUR DD 5.1
Language                                 : Russian
Default                                  : Inherited From: 2
Alternate group                          : 1
Encoded date                             : UTC 2017-01-15 07:07:28
Tagged date                              : UTC 2017-01-15 07:08:43
Fallback To                              : 2
Audio #6
ID                                       : 7
Format                                   : AC-3
Format/Info                              : Audio Coding 3
Mode extension                           : CM (complete main)
Format settings, Endianness              : Big
Codec ID                                 : ac-3
Duration                                 : 1h 48mn
Bit rate mode                            : Constant
Bit rate                                 : 640 Kbps
Channel(s)                               : 6 channels
Channel positions                        : Front: L C R, Side: L R, LFE
Sampling rate                            : 48.0 KHz
Frame rate                               : 31.250 fps (1536 spf)
Bit depth                                : 16 bits
Compression mode                         : Lossy
Stream size                              : 497 MiB (7%)
Title                                    : Ukrainian DUB Disney / Buena Vista DD 5.1
Language                                 : Ukrainian
Default                                  : No
Alternate group                          : 1
Encoded date                             : UTC 2017-01-15 07:07:28
Tagged date                              : UTC 2017-01-15 07:08:42
Fallback To                              : 3
Audio #7
ID                                       : 8
Format                                   : AC-3
Format/Info                              : Audio Coding 3
Mode extension                           : CM (complete main)
Format settings, Endianness              : Big
Codec ID                                 : ac-3
Duration                                 : 1h 48mn
Bit rate mode                            : Constant
Bit rate                                 : 640 Kbps
Channel(s)                               : 6 channels
Channel positions                        : Front: L C R, Side: L R, LFE
Sampling rate                            : 48.0 KHz
Frame rate                               : 31.250 fps (1536 spf)
Bit depth                                : 16 bits
Compression mode                         : Lossy
Stream size                              : 498 MiB (7%)
Title                                    : English DD 5.1
Language                                 : English
Default                                  : No
Alternate group                          : 1
Encoded date                             : UTC 2017-01-15 07:07:28
Tagged date                              : UTC 2017-01-15 07:08:42
Fallback To                              : 4
Text #1
ID                                       : 9
Format                                   : Timed Text
Muxing mode                              : sbtl
Codec ID                                 : tx3g
Duration                                 : 1h 39mn
Bit rate mode                            : Variable
Bit rate                                 : 129 bps
Stream size                              : 94.8 KiB (0%)
Title                                    : Russian from iTunes Subtitle
Language                                 : Russian
Default                                  : Yes
Forced                                   : No
Alternate group                          : 2
Encoded date                             : UTC 2017-01-15 07:12:12
Tagged date                              : UTC 2017-01-15 07:12:12
Text #2
ID                                       : 10
Format                                   : Timed Text
Muxing mode                              : sbtl
Codec ID                                 : tx3g
Duration                                 : 1h 39mn
Bit rate mode                            : Variable
Bit rate                                 : 80 bps
Stream size                              : 58.4 KiB (0%)
Title                                    : English from iTunes Subtitle
Language                                 : English
Default                                  : No
Forced                                   : No
Alternate group                          : 2
Encoded date                             : UTC 2017-01-15 07:12:12
Tagged date                              : UTC 2017-01-15 07:12:12
Text #3
ID                                       : 11
Format                                   : Timed Text
Muxing mode                              : sbtl
Codec ID                                 : tx3g
Duration                                 : 1h 39mn
Bit rate mode                            : Variable
Bit rate                                 : 87 bps
Stream size                              : 63.9 KiB (0%)
Title                                    : English Subtitle
Language                                 : English
Default                                  : No
Forced                                   : No
Alternate group                          : 2
Encoded date                             : UTC 2017-01-15 07:12:12
Tagged date                              : UTC 2017-01-15 07:12:12
Text #4
ID                                       : 12
Format                                   : Timed Text
Muxing mode                              : sbtl
Codec ID                                 : tx3g
Duration                                 : 1h 46mn
Bit rate mode                            : Variable
Bit rate                                 : 99 bps
Stream size                              : 77.5 KiB (0%)
Title                                    : English SDH Subtitle
Language                                 : English
Default                                  : No
Forced                                   : No
Alternate group                          : 2
Encoded date                             : UTC 2017-01-15 07:12:12
Tagged date                              : UTC 2017-01-15 07:12:12
Menu #1
00:00:00.000                             : 01. Opening Credits
00:00:59.559                             : 02. Gideon Grey
00:05:50.100                             : 03. The Police Academy
00:10:05.563                             : 04. Welcome to Zootopia
00:14:31.537                             : 05. Meter Maid Duty
00:18:24.019                             : 06. Pawpsicles
00:26:03.353                             : 07. The Weasel Chase
00:30:57.439                             : 08. It's Called a Hustle
00:37:07.100                             : 09. The Naturalist Club
00:40:43.441                             : 10. Department of Mammal Vehicles
00:44:31.752                             : 11. Mr. Big
00:51:40.430                             : 12. Manchas Goes Savage
00:55:40.378                             : 13. The Gondola
01:00:48.269                             : 14. Help From Bellwether
01:03:37.855                             : 15. Cliffside Asylum
01:09:19.822                             : 16. We Cracked The Case
01:13:39.165                             : 17. Hopps Gives Up
01:17:07.372                             : 18. Hopps' Apology
01:21:52.366                             : 19. Doug's Laboratory
01:28:19.169                             : 20. The Natural History Museum
01:32:43.433                             : 21. Epilogue
01:36:12.141                             : 22. Closing Credits
Menu #2
ID                                       : 13
Codec ID                                 : text
Duration                                 : 1h 48mn
Title                                    : Chapter Titles
Language                                 : English
Encoded date                             : UTC 2017-01-15 07:16:25
Tagged date                              : UTC 2017-01-15 07:16:25
Menu For                                 : 2,1
00:00:00.000                             : 01. Opening Credits
00:00:59.559                             : 02. Gideon Grey
00:05:50.100                             : 03. The Police Academy
00:10:05.563                             : 04. Welcome to Zootopia
00:14:31.537                             : 05. Meter Maid Duty
00:18:24.019                             : 06. Pawpsicles
00:26:03.353                             : 07. The Weasel Chase
00:30:57.439                             : 08. It's Called a Hustle
00:37:07.100                             : 09. The Naturalist Club
00:40:43.441                             : 10. Department of Mammal Vehicles
00:44:31.752                             : 11. Mr. Big
00:51:40.430                             : 12. Manchas Goes Savage
00:55:40.378                             : 13. The Gondola
01:00:48.269                             : 14. Help From Bellwether
01:03:37.855                             : 15. Cliffside Asylum
01:09:19.822                             : 16. We Cracked The Case
01:13:39.165                             : 17. Hopps Gives Up
01:17:07.372                             : 18. Hopps' Apology
01:21:52.366                             : 19. Doug's Laboratory
01:28:19.169                             : 20. The Natural History Museum
01:32:43.433                             : 21. Epilogue
01:36:12.141                             : 22. Closing Credits
Bit rate mode                            : VBR
x264 лог 480p Release
Код:
HandBrakeCLI -i "Zootopia.mkv" -t 1 -o Zootopia.480p.eng.m4v -f mp4 -I -O -w 640 -l 356 --crop 138:138:0:0 --custom-anamorphic --modulus 4 --pixel-aspect 852:640 -e x264 -b 1200 -2 -a none -x cabac=0:ref=2:me=umh:bframes=0:weightp=0:subq=6:8x8dct=0:trellis=0:vbv-maxrate=5000:vbv-bufsize=5000 --verbose=1
x264 [info]: frame I:2564  Avg QP:16.33  size: 29465
x264 [info]: frame P:153866 Avg QP:19.04  size:  5870
x264 [info]: mb I  I16..4: 23.4%  0.0% 76.6%
x264 [info]: mb P  I16..4:  1.1%  0.0%  2.6%  P16..4: 38.7% 16.1%  7.3%  0.0%  0.0%    skip:34.3%
x264 [info]: coded y,uvDC,uvAC intra: 64.7% 81.4% 61.6% inter: 20.6% 23.3% 9.5%
x264 [info]: i16 v,h,dc,p: 39% 19%  9% 33%
x264 [info]: i4 v,h,dc,ddl,ddr,vr,hd,vl,hu: 34% 16% 14%  6%  7%  7%  6%  6%  5%
x264 [info]: i8c dc,h,v,p: 44% 20% 26% 10%
x264 [info]: ref P L0: 72.9% 27.1%
x264 [info]: kb/s:1200.10
x264 лог 720p Release
Код:
HandBrakeCLI -i "Zootopia.mkv" -t 1 -o Zootopia.720p.eng.m4v -f mp4 -4 -O -w 1280 -l 536 --crop 138:138:0:0 --modulus 8 -e x264 -b 4200 -2 -a none -x cabac=0:ref=3:me=umh:b-pyramid=none:b-adapt=2:weightb=0:trellis=0:weightp=0:vbv-maxrate=9500:vbv-bufsize=9500:subq=9:merange=32:deblock=0,0:qcomp=0.60:qpmin=0:qpmax=51:fast_pskip=0:aq-strength=0.7:no-dct-decimate=1:psy-rd=0.50,0.00 --verbose=1
x264 [info]: frame I:1692  Avg QP:12.76  size:140381
x264 [info]: frame P:57166 Avg QP:15.49  size: 42889
x264 [info]: frame B:97572 Avg QP:19.02  size:  7372
x264 [info]: consecutive B-frames:  3.2% 28.4% 37.2% 31.1%
x264 [info]: mb I  I16..4:  9.1% 52.5% 38.4%
x264 [info]: mb P  I16..4:  2.7%  6.6%  3.7%  P16..4: 44.2% 26.4% 10.9%  0.0%  0.0%    skip: 5.5%
x264 [info]: mb B  I16..4:  0.4%  1.1%  0.6%  B16..8: 34.6%  8.8%  1.4%  direct: 3.0%  skip:50.1%  L0:36.9% L1:51.6% BI:11.5%
x264 [info]: 8x8 transform intra:51.1% inter:36.9%
x264 [info]: coded y,uvDC,uvAC intra: 80.0% 79.4% 62.3% inter: 23.6% 21.3% 14.3%
x264 [info]: i16 v,h,dc,p: 33% 17% 15% 35%
x264 [info]: i8 v,h,dc,ddl,ddr,vr,hd,vl,hu: 12% 12% 10%  9% 12% 11% 12% 10% 11%
x264 [info]: i4 v,h,dc,ddl,ddr,vr,hd,vl,hu: 14% 14%  7% 10% 14% 12% 12%  9%  9%
x264 [info]: i8c dc,h,v,p: 45% 23% 20% 13%
x264 [info]: ref P L0: 71.5% 17.4% 11.1%
x264 [info]: ref B L0: 80.9% 19.1%
x264 [info]: kb/s:4179.55
x264 лог 1080p Release
Код:
HandBrakeCLI -i "Zootopia.mkv" -t 1 -o Zootopia.1080p.eng.m4v -f mp4 -O -w 1920 -l 804 --crop 138:138:0:0 --modulus 4 -e x264 -b 7000 -2 -a none -x ref=4:bframes=16:b-adapt=2:direct=auto:me=umh:merange=32:subq=10:rc-lookahead=60:analyse=all:trellis=2:deblock=0,0:qcomp=0.60:qpmin=0:qpmax=69:fast_pskip=0:aq-strength=0.7:no-dct-decimate=1:psy-rd=0.50,0.00:vbv-maxrate=25000:vbv-bufsize=25000:ip_ratio=1.30:pb_ratio=1.00 --verbose=1
x264 [info]: frame I:1235  Avg QP:14.40  size:277250
x264 [info]: frame P:33577 Avg QP:17.56  size: 89355
x264 [info]: frame B:121618 Avg QP:20.29  size: 19436
x264 [info]: consecutive B-frames:  2.6%  3.0%  5.3% 16.6% 19.4% 37.9%  9.3%  4.2%  1.1%  0.2%  0.1%  0.0%  0.0%  0.0%  0.0%  0.0%  0.2%
x264 [info]: mb I  I16..4:  6.9% 74.2% 18.8%
x264 [info]: mb P  I16..4:  3.8% 16.4%  1.9%  P16..4: 40.6% 18.3% 12.8%  0.7%  0.2%    skip: 5.3%
x264 [info]: mb B  I16..4:  0.3%  1.9%  0.2%  B16..8: 33.4%  7.9%  1.7%  direct: 4.1%  skip:50.5%  L0:41.9% L1:43.7% BI:14.4%
x264 [info]: 8x8 transform intra:75.3% inter:66.0%
x264 [info]: direct mvs  spatial:99.0% temporal:1.0%
x264 [info]: coded y,uvDC,uvAC intra: 77.5% 72.2% 42.1% inter: 19.5% 17.6% 6.0%
x264 [info]: i16 v,h,dc,p: 21% 16% 16% 47%
x264 [info]: i8 v,h,dc,ddl,ddr,vr,hd,vl,hu: 12% 10% 10%  9% 12% 11% 12% 10% 13%
x264 [info]: i4 v,h,dc,ddl,ddr,vr,hd,vl,hu: 22% 10% 10%  7% 11% 10% 10%  8% 10%
x264 [info]: i8c dc,h,v,p: 35% 30% 20% 15%
x264 [info]: Weighted P-Frames: Y:2.6% UV:1.8%
x264 [info]: ref P L0: 57.4% 15.5% 19.3%  7.6%  0.3%  0.0%
x264 [info]: ref B L0: 84.4% 13.2%  2.4%
x264 [info]: ref B L1: 94.2%  5.8%
x264 [info]: kb/s:6996.99
Скриншоты 480p Release
Скриншоты 720p Release
Скриншоты 1080p Release



Релиз подготовлен для просмотра на Apple TV, iPad, iPhone, iPod Touch.
Для просмотра данного релиза на компьютере с ОС Windows рекомендуется использовать VLC media player
Download
Для скачивания .torrent файлов необходима регистрация
Сайт не распространяет и не хранит электронные версии произведений, а лишь предоставляет доступ к создаваемому пользователями каталогу ссылок на торрент-файлы, которые содержат только списки хеш-сумм
[Профиль]  [ЛС] 

FlowMasteRus

Стаж: 11 лет 9 месяцев

Сообщений: 92


FlowMasteRus · 09-Июн-16 20:14 (спустя 9 часов)

Спасибо, за релиз
[Профиль]  [ЛС] 

adevaleev

Стаж: 6 лет 6 месяцев

Сообщений: 13


adevaleev · 11-Июн-16 09:41 (спустя 1 день 13 часов)

Что такое "descriptive"?
[Профиль]  [ЛС] 

ram97

Стаж: 4 года

Сообщений: 4


ram97 · 11-Июн-16 11:15 (спустя 1 час 33 мин.)

adevaleev писал(а):
70864742Что такое "descriptive"?
Описывает происходящее на экране для слабовидящих.
[Профиль]  [ЛС] 

ukrliga

Стаж: 8 лет 8 месяцев

Сообщений: 62


ukrliga · 15-Июн-16 22:00 (спустя 4 дня)

Вадим, а есть украинская дорожка?
[Профиль]  [ЛС] 

yv_apple

Moderator

Стаж: 9 лет

Сообщений: 5684

yv_apple · 16-Июн-16 09:22 (спустя 11 часов)

ukrliga писал(а):
70893825Вадим, а есть украинская дорожка?
Пока не видел. Ждем БД. Вы же знаете, что если она есть, я её обязательно вставил бы.
[Профиль]  [ЛС] 

Al_No

Стаж: 8 лет 3 месяца

Сообщений: 1


Al_No · 18-Июн-16 09:53 (спустя 2 дня)

Спасибо
[Профиль]  [ЛС] 

yv_apple

Moderator

Стаж: 9 лет

Сообщений: 5684

yv_apple · 17-Янв-17 21:24 (спустя 6 месяцев)

ВНИМАНИЕ!!!
Раздача обновлена.
РИП сделан с Blu-Ray EUR
Локализован видеоряд.
Добавлена Украинский Дубляж.
[Профиль]  [ЛС] 

Theyneedtobefed1

Стаж: 4 года 9 месяцев

Сообщений: 10


Theyneedtobefed1 · 23-Июл-17 14:16 (спустя 6 месяцев)

Подскажите, пожалуйста: имеется Blu-Ray, разложенный на дорожки (то есть, отдельно видео .264, аудиодорожки .ac3 и т. д.) с помощью tsMuxer. Какой программой можно собрать все эти части в контейнер M4V для просмотра на iPhone? Благодарю заранее.
[Профиль]  [ЛС] 

Voldcurious

Стаж: 3 года 6 месяцев

Сообщений: 7

Voldcurious · 31-Мар-18 00:57 (спустя 8 месяцев, ред. 31-Мар-18 00:57)

[Профиль]  [ЛС] 

yv_apple

Moderator

Стаж: 9 лет

Сообщений: 5684

yv_apple · 09-Апр-18 14:34 (спустя 9 дней)

Theyneedtobefed1
Под МАК - Subler...
Но нужно учитывать что:
DTS дороги в не засунешь.
АС-3 дороги не воспроизводятся на iPhone.
Субтитры с расширением SUP тоже не годятся.
Да и не все .264 залезут в Subler!!!
В итоге придется: перекодировать видео, делать звук, распознавать субтитры и только после этого собирать все в Subler.
[Профиль]  [ЛС] 
 
Ответить
Loading...
Error