Легенды Российского Спорта [1998, 3хDVD9]

Страницы:  1
Ответить
Автор
Сообщение

Гость


Гость · 04-Ноя-12 10:00 (6 лет 9 месяцев назад, ред. 04-Ноя-12 10:03)

Легенды Российского Спорта
Вид спорта: Хоккей, Фигурное катание, Футбол, Тяжелая атлетика, Велоспорт, Плавание, Биатлон, Гимнастика, Современное пятиборье, Шахматы.
Участники: Владислав Третьяк, Валерий Харламов, Анатолий Фирсов, Людмила Пахомова, Ирина Роднина, Ирина Моисеева и Андрей Миненков, Лев Яшин, Всеволод Бобров, Юрий Власов, Анатолий Тарасов, Виктор Капитонов, Владимир Сальников, Елена Вайцеховская, Александр Тихонов, Людмила Турищева, Елена Мухина, Елена Петушкова, Анатолий Старостин, Анатолий Карпов.
Продолжительность: 09:01:00
Год выпуска: 1998
Качество: DVD9
Формат видео: DVD Video
Видео: PAL 4:3 (720x576) VBR
Аудио: Русский, AC3, 2/0 (L,R) ch, 192 kbps, Delay 201 mSec
Содержание:
Диск 1:
01. Золотая шайба Анатолия Тарасова
02. Воспоминания Анатолия Тарасова
03. Третьяк без маски
04. Блуждающий форвард Анатолий Фирсов
05. Валерий Харламов
06. Вратарь. Лев Яшин
07. Вспоминая Боброва
Диск 2:
01. Возвращение мечты. Людмила Пахомова
02. Судьба на лезвии конька. Ирина, Роднина
03. Сотворившие праздник. Ирина Моисеева, Андрей Миненков
04. Железная Тури. Людмилa Турищева
05. Торжество духа. Елена Мухина
06. Лишь мгновение ты наверху. Елена Вайцеховская
07. Счастье - это сама жизнь. Елена Петушкова
Диск 3:
01. Штанга весом 20 тысяч тонн. Юрий Власов
02. Гонки на время. Виктор Капитонов
03. Рыцарь пяти качеств. Анатолий Старостин
04. Человек, который переплыл экватор. Владимир Сальников
05. Король чемпионов. Александр Тихонов
06. Монолог о шахматах. Анатолий Карпов
07. Легенда о легендах
MI
Полное имя : T:\Легенды российского спорта 3хDVD9\Диск 1\VTS_05_1.VOB
Формат : MPEG-PS
Размер файла : 1024 Мбайт
Продолжительность : 25 м.
Режим общего битрейта : Переменный
Общий поток : 5724 Кбит/сек
Видео
Идентификатор : 224 (0xE0)
Формат : MPEG Video
Версия формата : Version 2
Профиль формата : [email protected]
Параметр BVOP формата : Да
Параметр матрицы формата : Выборочная
Параметр GOP формата : M=3, N=12
Продолжительность : 25 м.
Вид битрейта : Переменный
Битрейт : 5418 Кбит/сек
Максимальный битрейт : 9500 Кбит/сек
Ширина : 720 пикселей
Высота : 576 пикселей
Соотношение сторон : 4:3
Частота кадров : 25,000 кадров/сек
Стандарт вещания : PAL
Цветовое пространство : YUV
Субдискретизация насыщенности : 4:2:0
Битовая глубина : 8 бит
Тип развёртки : Чересстрочная
Порядок развёртки : Верхнее поле первое
Метод сжатия : С потерями
Бит/(Пиксели*Кадры) : 0.523
Размер потока : 969 Мбайт (95%)
Аудио
Идентификатор : 189 (0xBD)-128 (0x80)
Формат : AC-3
Формат/Информация : Audio Coding 3
Расширение режима : CM (complete main)
Режим смешивания : DVD-Video
Продолжительность : 24 м.
Вид битрейта : Постоянный
Битрейт : 192 Кбит/сек
Каналы : 2 канала
Расположение каналов : Front: L R
Частота : 48,0 КГц
Битовая глубина : 16 бит
Метод сжатия : С потерями
Задержка видео : 123 мс.
Размер потока : 34,3 Мбайт (3%)
DVDinfo
Title: Диск 1
Size: 7.64 Gb ( 8 009 062,00 KBytes ) - DVD-9
Enabled regions: 1, 2, 3, 4, 5, 6
VTS_01 :
Play Length: 00:00:05
Video: PAL 4:3 (720x576) VBR
VTS_02 :
Play Length: 00:00:15
Video: PAL 4:3 (720x576) VBR
Audio:
Not specified, AC3, 3/2 (L,C,R,SL,SR)+LFE ch, 384 kbps, Delay 0 mSec
VTS_03 :
Play Length: 00:02:32
Video: PAL 4:3 (720x576) VBR
Audio:
Not specified, AC3, 2/0 (L,R) ch, 256 kbps, Delay 0 mSec
VTS_04 :
Play Length: 00:23:49+{00:23:49}
Video: PAL 4:3 (720x576) VBR
Audio:
Russian, AC3, 2/0 (L,R) ch, 192 kbps, Delay 0 mSec
VTS_05 :
Play Length: 00:27:27+{00:27:27}
Video: PAL 4:3 (720x576) VBR
Audio:
Russian, AC3, 2/0 (L,R) ch, 192 kbps, Delay 203 mSec
VTS_06 :
Play Length: 00:26:04+{00:26:04}
Video: PAL 4:3 (720x576) VBR
Audio:
Russian, AC3, 2/0 (L,R) ch, 192 kbps, Delay 203 mSec
VTS_07 :
Play Length: 00:22:27+{00:22:27}
Video: PAL 4:3 (720x576) VBR
Audio:
Russian, AC3, 2/0 (L,R) ch, 192 kbps, Delay 201 mSec
VTS_08 :
Play Length: 00:26:21+{00:26:21}
Video: PAL 4:3 (720x576) VBR
Audio:
Russian, AC3, 2/0 (L,R) ch, 192 kbps, Delay 207 mSec
VTS_09 :
Play Length: 00:28:56+{00:28:56}
Video: PAL 4:3 (720x576) VBR
Audio:
Russian, AC3, 2/0 (L,R) ch, 192 kbps, Delay 191 mSec
VTS_10 :
Play Length: 00:28:15+{00:28:15}
Video: PAL 4:3 (720x576) VBR
Audio:
Russian, AC3, 2/0 (L,R) ch, 192 kbps, Delay 201 mSec
Скриншоты
Download
Сайт не распространяет и не хранит электронные версии произведений, а лишь предоставляет доступ к создаваемому пользователями каталогу ссылок на торрент-файлы, которые содержат только списки хеш-сумм
Как скачивать? (для скачивания .torrent файлов необходима регистрация)
 

AllMit

Стаж: 7 лет 7 месяцев

Сообщений: 6


AllMit · 28-Янв-13 15:47 (спустя 2 месяца 24 дня)

Хотелось бы скорости плизззззз!!!!!!!!!!!!
[Профиль]  [ЛС] 

preper

Стаж: 9 лет 9 месяцев

Сообщений: 1099

preper · 10-Июл-13 11:30 (спустя 5 месяцев 12 дней)

Мы верим твердо в героев спорта,
Нам победа, как воздух нужна…
Мы хотим всем рекордам
Наши звонкие дать имена!
[Профиль]  [ЛС] 

demio2011

Стаж: 8 лет 8 месяцев

Сообщений: 124


demio2011 · 21-Фев-16 09:31 (спустя 2 года 7 месяцев)

со скоростью полный шваХ!
[Профиль]  [ЛС] 

Roller45

Стаж: 3 года 9 месяцев

Сообщений: 8


Roller45 · 03-Авг-18 23:28 (спустя 2 года 5 месяцев)

Раздайте пожалуйста
[Профиль]  [ЛС] 

kreptorg

Стаж: 6 лет 2 месяца

Сообщений: 4


kreptorg · 04-Окт-18 19:02 (спустя 2 месяца)

Прочитал список легенд. Возник закономерный вопрос: почему легенды "российского" спорта. Не увидел ни одной российской, все советские.
[Профиль]  [ЛС] 

preper

Стаж: 9 лет 9 месяцев

Сообщений: 1099

preper · 05-Окт-18 00:25 (спустя 5 часов)

kreptorg писал(а):
все советские.
Согласен, название вводит в заблуждение.
[Профиль]  [ЛС] 

Roller45

Стаж: 3 года 9 месяцев

Сообщений: 8


Roller45 · 03-Дек-18 16:05 (спустя 1 месяц 29 дней, ред. 03-Дек-18 16:05)

preper писал(а):
76074929
kreptorg писал(а):
все советские.
Согласен, название вводит в заблуждение.
Поддерживаю.
Спасибо, тому кто раздал сегодня
[Профиль]  [ЛС] 
 
Ответить
Loading...
Error