[ANIME] Kaze no Tani no Naushika / Nausicaä of the Valley of the Wind / Навсикая (Хаяо Миядзаки) [1984, Япония, аниме, мультфильм, фантастика, фэнтези, драма, BDRip HD (1080p, 720p), SD (480p)] DUB, MVO, DVO, AVO, Original + SUB (rus, eng)

Страницы:  1

Ответить
Автор
Сообщение

Barma

Стаж: 13 лет 9 месяцев

Сообщений: 248


Barma · 01-Дек-10 18:39 (8 лет 6 месяцев назад, ред. 10-Май-11 17:35)

Kaze no Tani no Naushika / 風の谷のナウシカ / Nausicaä of the Valley of the Wind / Навсикая из Долины ветров

"Miyazaki's epic masterpiece"

Год выпуска: 1984
Страна: Япония
Жанр: аниме, мультфильм, фантастика, фэнтези, драма
Продолжительность: 112 мин.
Перевод: Профессиональный дублированный перевод, многоголосый закадровый перевод, двухголосый закадровый перевод и одноголосый закадровый авторский перевод
Оригинальная аудиодорожка: Есть
Cубтитры: Русские полные и английские полные
Режиссёр: Хаяо Миядзаки
Сценарий: Хаяо Миядзаки
Продюсер: Рик Демпси, Исао Такахата, Тохру Хара
Композитор: Джо Хисаиси
Художник: Мицуки Накамура
Монтаж: Наоки Канеко, Томоко Кида, Сёдзи Сакаи
В ролях: Суми Симамото, Махито Цудзимура, Хисако Кёда, Горо Ная, Икиро Нагаи, Кохэй Мияути, Дзёдзи Янами, Минору Яда, Рихоко Ёсида, Масако Сугая
Роли дублировали: Ольга Зверева, Ирина Маликова, Никита Прозоровский, Андрей Симанов, Елена Борзунова
Сборы в России: $72 900
Мировая премьера: 11 марта 1984
Премьера (РФ): 26 июля 2007, RUSCICO
Релиз на DVD: 11 февраля 2010, Новый Диск
Описание: В будущем человечество, столетиями безоглядно эксплуатировавшее природу, пало жертвой своей гордыни. Землю постигла ужасная экологическая катастрофа, процветающие когда-то промышленные цивилизации обратились в прах, а поверхность планеты покрыло гигантское море Леса, испускающее в атмосферу ядовитые споры своих растений.
Оставшимся в живых людям приходится жить в тени Леса и его чудовищных насекомообразных обитателей, пытаясь не допустить распространения вредоносной растительности. Мирная Долина Ветров - одно из царств, образовавшихся на руинах прежних государств. Жители Долины обожают своего доброго правителя и его дочь Навсикаю, необычную девочку, находящую общий язык с исполинскими насекомыми Леса, странными порождениями нарушенной экосистемы.
Но безмятежное существование Долины Ветров нарушается, когда маленькая страна становится пешкой в играх крупных воинственных соседей, сражающихся за остатки драгоценных природных ресурсов планеты. Тем не менее, скрытому потенциалу Навсикаи ещё предстоит раскрыться, и юной принцессе, возможно, удастся изменить судьбы мира...
Качество исходника: Blu-Ray 1080p
Качество: BDRip
Тип: 480p 720p 1080p
Контейнер: m4v
Видео: 640x460 анаморф 852x460 at 23.976 fps, MPEG-4 AVC, ~1500 kbps avg
Видео: 1280x692 at 23.976 fps, MPEG-4 AVC, ~5000 kbps avg
Видео: 1920x1036 at 23.976 fps, MPEG-4 AVC, ~12000 kbps avg
Аудио#1: Russian: 48 kHz, ААС, 2/0 (L,R), ~128.00 / 160.00 kbps avg |Дубляж, RUSCICO|
Аудио#2: Russian: 48 kHz, ААС, 2/0 (L,R), ~128.00 / 160.00 kbps avg |Многоголосый закадровый, Киномания|
Аудио#3: Russian: 48 kHz, ААС, 2/0 (L,R), ~128.00 / 160.00 kbps avg |Двухголосый закадровый, Tycoon|
Аудио#4: Russian: 48 kHz, ААС, 2/0 (L,R), ~128.00 / 160.00 kbps avg |Одноголосый закадровый, А. Толстобров|
Аудио#5: Russian: 48 kHz, ААС, 2/0 (L,R), ~128.00 / 160.00 kbps avg |Одноголосый закадровый, Ю. Сербин|
Аудио#6: English: 48 kHz, ААС, 2/0 (L,R), ~128.00 / 160.00 kbps avg |Дубляж|
Аудио#7: Japanese: 48 kHz, ААС, 2/0 (L,R), ~128.00 / 160.00 kbps avg
Аудио#8: Japanese: 48 kHz, ААС, 2/0 (L,R), ~128.00 / 160.00 kbps avg |Комментируют Хидэаки Анно и Казуёси Катаяма|
Субтитры №1: Russian: |Полные, BurniN∙SnikerS|
Субтитры №2: Russian: |Полные, RUSCICO|
Субтитры №3: English: |Полные|
Субтитры №4: Russian: |Полные, на комментарии Хидэаки Анно и Казуёси Катаямы|
Знаете ли Вы, что...
  1. Имя «Навсикая» Миядзаки взял у принцессы из «Одиссеи» Гомера. Увлечение же главной героини он позаимствовал из древней японской легенды о «благородной деве, которая любила насекомых».
  2. На время создания фильма манга была только начата, и Миядзаки еще не знал, когда и чем она завершится. Поэтому специально для фильма была придумана «быстрая» концовка, о которой режиссер в дальнейшем отзывался с большим пренебрежением.
  3. Это первая и единственная работа студии «Topcraft» на японском рынке. До фильма «Topcraft» была субподрядчиком американской компании «Rankin-Bass», после стала основой созданной Миядзаки и Исао Такахатой «Studio Ghibli».
  4. В 1980-х годах вышли две компьютерные игры по мотивам «Навсикаи» — шутер «Nausicaa in the Nick of Time» и приключенческая игра «Nausicaa of the Valley of Wind».
  5. Также, Навсикая очень похожа на Клариссу из анимэ-фильма Люпен III: Замок Калиостро, над которым тоже работал Миядзаки.
Создание фильма

В 1984 году студии Ghibli еще не существовало и в создании фильма были задействованы производственные мощности студии Topcraft. Над «Навсикаей» работал будущий костяк знаменитой студии: Хаяо Миядзаки, Исао Такахата, Кадзунори Ито, Тосио Судзуки. Внимание к деталям, прославившее Ghibli, здесь проявилось в полной мере. При создании фильма были использованы 263 цвета и 56078 отрисованных кадров. Каждый цветок, дерево, облако получились отрисованы тщательно и с любовью. Из этих мельчайших деталей складываются захватывающие дух картины иного мира, яркие и удивительно достоверные. Музыкальное оформление к «Навсикае» написал будущий бессменный композитор-минималист студии Ghibli Дзё Хисаиси, которого главный создатель фильма Хаяо Миядзаки специально пригласил после прослушивания вышедшего небольшим тиражом его первого альбома «Хисаиси».
На время создания фильма работа над мангой по «Навсикае» была только начата, и Миядзаки ещё не знал, когда и чем она завершится. Поэтому специально для фильма была придумана «быстрая» концовка, о которой режиссёр в дальнейшем отзывался с большим пренебрежением.

iTunes Meta Tags
Код:
Sort Name: Nausicaa of the Valley of Wind
XID: Apple:vendor_id:1984-8240
contentID: 8240
Screenwriters: Хаяо Миядзаки
Producers: Рик Демпси, Исао Такахата, Тохру Хара
Director: Хаяо Миядзаки
Cast: Суми Симамото, Махито Цудзимура, Хисако Кёда, Горо Ная, Икиро Нагаи, Кохэй Мияути, Дзёдзи Янами, Минору Яда, Рихоко Ёсида, Масако Сугая
Rating: 134
Long Description: В будущем человечество, столетиями безоглядно эксплуатировавшее природу, пало жертвой своей гордыни. Землю постигла ужасная экологическая катастрофа, процветающие когда-то промышленные цивилизации обратились в прах, а поверхность планеты покрыло гигантское море Леса, испускающее в атмосферу ядовитые споры своих растений.
Оставшимся в живых людям приходится жить в тени Леса и его чудовищных насекомообразных обитателей, пытаясь не допустить распространения вредоносной растительности. Мирная Долина Ветров - одно из царств, образовавшихся на руинах прежних государств. Жители Долины обожают своего доброго правителя и его дочь Навсикаю, необычную девочку, находящую общий язык с исполинскими насекомыми Леса, странными порождениями нарушенной экосистемы.
Но безмятежное существование Долины Ветров нарушается, когда маленькая страна становится пешкой в играх крупных воинственных соседей, сражающихся за остатки драгоценных природных ресурсов планеты. Тем не менее, скрытому потенциалу Навсикаи ещё предстоит раскрыться, и юной принцессе, возможно, удастся изменить судьбы мира...
Description: Из-за беспечности людей Земля лежит в руинах. Джунгли кишат гигантскими насекомыми. Но и с ними надо находить общий язык. Это удается только Навсикае - прелестной юной принцессе.  Начинается война за оставшиеся на Земле природные ресурсы...
Release Date: 1984-03-11T08:00:00Z
Genre: Anime
Artist: Hayao Miyazaki
Name: Kaze no tani no Naushika
MediaInfo 480p Release
Код:
General
Complete name                            : Kaze no tani no Naushika.m4v
Format                                   : MPEG-4
Codec ID                                 : M4V  (M4V /M4A /mp42/isom)
File size                                : 1.96 GiB
Duration                                 : 1h 57mn
Overall bit rate mode                    : Variable
Overall bit rate                         : 2 403 Kbps
Movie name                               : Kaze no tani no Naushika
Performer                                : Hayao Miyazaki
Director                                 : Хаяо Миядзаки
Actor                                    : Суми Симамото / Махито Цудзимура / Хисако Кёда / Горо Ная / Икиро Нагаи / Кохэй Мияути / Дзёдзи Янами / Минору Яда / Рихоко Ёсида / Масако Сугая
Screenplay by                            : Хаяо Миядзаки
Producer                                 : Рик Демпси / Исао Такахата / Тохру Хара
Genre                                    : Anime
ContentType                              : Short Film
Description                              : Из-за беспечности людей Земля лежит в руинах. Джунгли кишат гигантскими насекомыми. Но и с ними надо находить общий язык. Это удается только Навсикае - прелестной юной принцессе.  Начинается война за оставшиеся на Земле природные ресурсы...
Recorded date                            : UTC 1984-03-11 08:00:00
Encoded date                             : UTC 2019-03-17 11:52:50
Tagged date                              : UTC 2019-03-20 20:13:39
Cover                                    : Yes
Rating                                   : None
Title/Sort                               : Nausicaa of the Valley of Wind
LongDescription                          : В будущем человечество, столетиями безоглядно эксплуатировавшее природу, пало жертвой своей гордыни. Землю постигла ужасная экологическая катастрофа, процветающие когда-то промышленные цивилизации обратились в прах, а поверхность планеты покрыло гигантское море Леса, испускающее в атмосферу ядовитые споры своих растений. / Оставшимся в живых людям приходится жить в тени Леса и его чудовищных насекомообразных обитателей, пытаясь не допустить распространения вредоносной растительности. Мирная Долина Ветров - одно из царств, образовавшихся на руинах прежних государств. Жители Долины обожают своего доброго правителя и его дочь Навсикаю, необычную девочку, находящую общий язык с исполинскими насекомыми Леса, странными порождениями нарушенной экосистемы. / Но безмятежное существование Долины Ветров нарушается, когда маленькая страна становится пешкой в играх крупных воинственных соседей, сражающихся за остатки драгоценных природных ресурсов планеты. Тем не менее, скрытому потенциалу Навсикаи ещё предстоит раскрыться, и юной принцессе, возможно, удастся изменить судьбы мира...
AppleStoreCatalogID                      : 8240
Vendor                                   : Apple:vendor_id:1984-8240
ContentRating                            : ru-movie|12+|200|
Video #1
ID                                       : 1
Format                                   : AVC
Format/Info                              : Advanced Video Codec
Format profile                           : [email protected]
Format settings                          : 2 Ref Frames
Format settings, CABAC                   : No
Format settings, ReFrames                : 2 frames
Codec ID                                 : avc1
Codec ID/Info                            : Advanced Video Coding
Duration                                 : 1h 57mn
Bit rate                                 : 1 500 Kbps
Width                                    : 640 pixels
Height                                   : 460 pixels
Display aspect ratio                     : 1.85:1
Frame rate mode                          : Variable
Frame rate                               : 23.976 (24000/1001) fps
Minimum frame rate                       : 23.974 fps
Maximum frame rate                       : 23.981 fps
Color space                              : YUV
Chroma subsampling                       : 4:2:0
Bit depth                                : 8 bits
Scan type                                : Progressive
Bits/(Pixel*Frame)                       : 0.213
Stream size                              : 1.23 GiB (62%)
Title                                    : Main Program
Writing library                          : x264 core 142 r2479 dd79a61
Encoding settings                        : cabac=0 / ref=2 / deblock=1:0:0 / analyse=0x1:0x111 / me=umh / subme=6 / psy=1 / psy_rd=1.00:0.00 / mixed_ref=1 / me_range=16 / chroma_me=1 / trellis=0 / 8x8dct=0 / cqm=0 / deadzone=21,11 / fast_pskip=1 / chroma_qp_offset=-2 / threads=18 / lookahead_threads=3 / sliced_threads=0 / nr=0 / decimate=1 / interlaced=0 / bluray_compat=0 / constrained_intra=0 / bframes=0 / weightp=0 / keyint=240 / keyint_min=24 / scenecut=40 / intra_refresh=0 / rc_lookahead=40 / rc=2pass / mbtree=1 / bitrate=1500 / ratetol=1.0 / qcomp=0.60 / qpmin=0 / qpmax=69 / qpstep=4 / cplxblur=20.0 / qblur=0.5 / vbv_maxrate=5000 / vbv_bufsize=5000 / nal_hrd=none / filler=0 / ip_ratio=1.40 / aq=1:1.00
Language                                 : Japanese
Encoded date                             : UTC 2019-03-17 11:52:50
Tagged date                              : UTC 2019-03-17 11:52:58
Color range                              : Limited
Color primaries                          : BT.709
Transfer characteristics                 : BT.709
Matrix coefficients                      : BT.709
Menus                                    : 14,15
Codec configuration box                  : avcC
Video #2
ID                                       : 15
Format                                   : JPEG
Codec ID                                 : jpeg
Duration                                 : 1h 57mn
Bit rate mode                            : Variable
Bit rate                                 : 1 349 bps
Width                                    : 640 pixels
Height                                   : 345 pixels
Display aspect ratio                     : 1.85:1
Frame rate mode                          : Variable
Frame rate                               : 0.004 fps
Minimum frame rate                       : 0.002 fps
Maximum frame rate                       : 0.008 fps
Color space                              : YUV
Chroma subsampling                       : 4:2:0
Bit depth                                : 8 bits
Compression mode                         : Lossy
Bits/(Pixel*Frame)                       : 1.527
Stream size                              : 1.00 MiB (0%)
Title                                    : Chapter Images
Language                                 : Japanese
Default                                  : No
Encoded date                             : UTC 2019-03-20 20:02:24
Tagged date                              : UTC 2019-03-20 20:02:24
Menu For                                 : 1
ColorSpace_ICC                           : RGB
Audio #1
ID                                       : 2
Format                                   : AAC LC
Format/Info                              : Advanced Audio Codec Low Complexity
Codec ID                                 : mp4a-40-2
Duration                                 : 1h 57mn
Bit rate mode                            : Variable
Bit rate                                 : 104 Kbps
Maximum bit rate                         : 123 Kbps
Channel(s)                               : 2 channels
Channel layout                           : L R
Sampling rate                            : 48.0 KHz
Frame rate                               : 46.875 fps (1024 SPF)
Compression mode                         : Lossy
Stream size                              : 87.1 MiB (4%)
Title                                    : Russian DUB RUSCICO Stereo
Language                                 : Russian
Default                                  : Yes
Alternate group                          : 1
Encoded date                             : UTC 2019-03-17 11:52:50
Tagged date                              : UTC 2019-03-17 11:53:03
Menus                                    : 14
Audio #2
ID                                       : 3
Format                                   : AAC LC
Format/Info                              : Advanced Audio Codec Low Complexity
Codec ID                                 : mp4a-40-2
Duration                                 : 1h 57mn
Bit rate mode                            : Variable
Bit rate                                 : 111 Kbps
Maximum bit rate                         : 124 Kbps
Channel(s)                               : 2 channels
Channel layout                           : L R
Sampling rate                            : 48.0 KHz
Frame rate                               : 46.875 fps (1024 SPF)
Compression mode                         : Lossy
Stream size                              : 93.1 MiB (5%)
Title                                    : Russian MVO Kinomaniya Stereo
Language                                 : Russian
Default                                  : No
Alternate group                          : 1
Encoded date                             : UTC 2019-03-17 11:52:50
Tagged date                              : UTC 2019-03-17 11:53:03
Audio #3
ID                                       : 4
Format                                   : AAC LC
Format/Info                              : Advanced Audio Codec Low Complexity
Codec ID                                 : mp4a-40-2
Duration                                 : 1h 57mn
Bit rate mode                            : Variable
Bit rate                                 : 110 Kbps
Maximum bit rate                         : 121 Kbps
Channel(s)                               : 2 channels
Channel layout                           : L R
Sampling rate                            : 48.0 KHz
Frame rate                               : 46.875 fps (1024 SPF)
Compression mode                         : Lossy
Stream size                              : 91.9 MiB (5%)
Title                                    : Russian DVO Tycoon-studio Stereo
Language                                 : Russian
Default                                  : No
Alternate group                          : 1
Encoded date                             : UTC 2019-03-17 11:52:50
Tagged date                              : UTC 2019-03-17 11:53:03
Audio #4
ID                                       : 5
Format                                   : AAC LC
Format/Info                              : Advanced Audio Codec Low Complexity
Codec ID                                 : mp4a-40-2
Duration                                 : 1h 57mn
Bit rate mode                            : Variable
Bit rate                                 : 111 Kbps
Maximum bit rate                         : 122 Kbps
Channel(s)                               : 2 channels
Channel layout                           : L R
Sampling rate                            : 48.0 KHz
Frame rate                               : 46.875 fps (1024 SPF)
Compression mode                         : Lossy
Stream size                              : 93.2 MiB (5%)
Title                                    : Russian AVO A.Tolstobrov Stereo
Language                                 : Russian
Default                                  : No
Alternate group                          : 1
Encoded date                             : UTC 2019-03-17 11:52:50
Tagged date                              : UTC 2019-03-17 11:53:03
Audio #5
ID                                       : 6
Format                                   : AAC LC
Format/Info                              : Advanced Audio Codec Low Complexity
Codec ID                                 : mp4a-40-2
Duration                                 : 1h 57mn
Bit rate mode                            : Variable
Bit rate                                 : 114 Kbps
Maximum bit rate                         : 124 Kbps
Channel(s)                               : 2 channels
Channel layout                           : L R
Sampling rate                            : 48.0 KHz
Frame rate                               : 46.875 fps (1024 SPF)
Compression mode                         : Lossy
Stream size                              : 95.2 MiB (5%)
Title                                    : Russian AVO U.Serbin Stereo
Language                                 : Russian
Default                                  : No
Alternate group                          : 1
Encoded date                             : UTC 2019-03-17 11:52:50
Tagged date                              : UTC 2019-03-17 11:53:03
Audio #6
ID                                       : 7
Format                                   : AAC LC
Format/Info                              : Advanced Audio Codec Low Complexity
Codec ID                                 : mp4a-40-2
Duration                                 : 1h 57mn
Bit rate mode                            : Variable
Bit rate                                 : 99.0 Kbps
Maximum bit rate                         : 117 Kbps
Channel(s)                               : 2 channels
Channel layout                           : L R
Sampling rate                            : 48.0 KHz
Frame rate                               : 46.875 fps (1024 SPF)
Compression mode                         : Lossy
Stream size                              : 82.9 MiB (4%)
Title                                    : English DUB Stereo
Language                                 : English
Default                                  : No
Alternate group                          : 1
Encoded date                             : UTC 2019-03-17 11:52:50
Tagged date                              : UTC 2019-03-17 11:53:03
Audio #7
ID                                       : 8
Format                                   : AAC LC
Format/Info                              : Advanced Audio Codec Low Complexity
Codec ID                                 : mp4a-40-2
Duration                                 : 1h 57mn
Bit rate mode                            : Variable
Bit rate                                 : 104 Kbps
Maximum bit rate                         : 121 Kbps
Channel(s)                               : 2 channels
Channel layout                           : L R
Sampling rate                            : 48.0 KHz
Frame rate                               : 46.875 fps (1024 SPF)
Compression mode                         : Lossy
Stream size                              : 87.3 MiB (4%)
Title                                    : Japanese Stereo
Language                                 : Japanese
Default                                  : No
Alternate group                          : 1
Encoded date                             : UTC 2019-03-17 11:52:50
Tagged date                              : UTC 2019-03-17 11:53:03
Audio #8
ID                                       : 9
Format                                   : AAC LC
Format/Info                              : Advanced Audio Codec Low Complexity
Codec ID                                 : mp4a-40-2
Duration                                 : 1h 57mn
Bit rate mode                            : Variable
Bit rate                                 : 132 Kbps
Maximum bit rate                         : 200 Kbps
Channel(s)                               : 2 channels
Channel layout                           : L R
Sampling rate                            : 48.0 KHz
Frame rate                               : 46.875 fps (1024 SPF)
Compression mode                         : Lossy
Stream size                              : 110 MiB (5%)
Title                                    : Commentary with Kazuyoshi Katayama and Hideaki Anno Japanese
Language                                 : Japanese
Default                                  : No
Alternate group                          : 1
Encoded date                             : UTC 2019-03-17 16:57:34
Tagged date                              : UTC 2019-03-17 16:57:39
Text #1
ID                                       : 10
Format                                   : Timed Text
Muxing mode                              : sbtl
Codec ID                                 : tx3g
Duration                                 : 1h 56mn
Bit rate mode                            : Variable
Bit rate                                 : 63 bps
Stream size                              : 54.0 KiB (0%)
Title                                    : Russian from BurniN-SnikerS Subtitle
Language                                 : Russian
Default                                  : Yes
Forced                                   : No
Alternate group                          : 2
Encoded date                             : UTC 2019-03-20 20:02:19
Tagged date                              : UTC 2019-03-20 20:02:19
Text #2
ID                                       : 11
Format                                   : Timed Text
Muxing mode                              : sbtl
Codec ID                                 : tx3g
Duration                                 : 1h 54mn
Bit rate mode                            : Variable
Bit rate                                 : 53 bps
Stream size                              : 44.9 KiB (0%)
Title                                    : Russian from RUSCICO Subtitle
Language                                 : Russian
Default                                  : No
Forced                                   : No
Alternate group                          : 2
Encoded date                             : UTC 2019-03-20 20:02:19
Tagged date                              : UTC 2019-03-20 20:02:19
Text #3
ID                                       : 12
Format                                   : Timed Text
Muxing mode                              : sbtl
Codec ID                                 : tx3g
Duration                                 : 1h 56mn
Bit rate mode                            : Variable
Bit rate                                 : 38 bps
Stream size                              : 32.3 KiB (0%)
Title                                    : English Subtitle
Language                                 : English
Default                                  : No
Forced                                   : No
Alternate group                          : 2
Encoded date                             : UTC 2019-03-20 20:02:19
Tagged date                              : UTC 2019-03-20 20:02:19
Text #4
ID                                       : 13
Format                                   : Timed Text
Muxing mode                              : sbtl
Codec ID                                 : tx3g
Duration                                 : 1h 56mn
Bit rate mode                            : Variable
Bit rate                                 : 123 bps
Stream size                              : 105 KiB (0%)
Title                                    : Russian Commentary with Kazuyoshi Katayama and Hideaki Anno Subtitle
Language                                 : Russian
Default                                  : No
Forced                                   : No
Alternate group                          : 2
Encoded date                             : UTC 2019-03-20 20:02:19
Tagged date                              : UTC 2019-03-20 20:02:19
Menu #1
00:00:00.000                             : Начало
00:01:59.995                             : Начальные титры
00:07:43.046                             : Омы
00:12:10.104                             : Учитель Юпа
00:18:39.452                             : Легенда
00:23:34.747                             : Княжна Растелль
00:28:38.717                             : Военные корабли Торумекия
00:33:30.175                             : Призыв к объединению
00:38:15.251                             : Могучий воин
00:44:57.111                             : Под огнем
00:49:53.032                             : Спасение
00:54:40.611                             : Гнездо Омов
00:58:27.421                             : Cтолкновение с насекомыми
01:01:19.426                             : Очаровательное место
01:07:53.653                             : Восстановление сил
01:13:51.177                             : Дикие грибы
01:18:39.131                             : Второй план
01:24:27.896                             : Побег!
01:30:49.861                             : Ёще ветра
01:34:39.340                             : Травля Омов
01:40:10.129                             : Спасение ребёнка
01:46:06.860                             : Атака могучего война
01:49:44.036                             : Навсикая и Омы
01:52:08.931                             : Возрождение
01:55:04.106                             : Финальные титры
Menu #2
ID                                       : 14
Codec ID                                 : text
Duration                                 : 1h 57mn
Title                                    : Chapter Titles
Language                                 : Russian
Encoded date                             : UTC 2019-03-20 20:02:19
Tagged date                              : UTC 2019-03-20 20:02:19
Menu For                                 : 2,1
00:00:00.000                             : Начало
00:01:59.995                             : Начальные титры
00:07:43.046                             : Омы
00:12:10.104                             : Учитель Юпа
00:18:39.452                             : Легенда
00:23:34.747                             : Княжна Растелль
00:28:38.717                             : Военные корабли Торумекия
00:33:30.175                             : Призыв к объединению
00:38:15.251                             : Могучий воин
00:44:57.111                             : Под огнем
00:49:53.032                             : Спасение
00:54:40.611                             : Гнездо Омов
00:58:27.421                             : Cтолкновение с насекомыми
01:01:19.426                             : Очаровательное место
01:07:53.653                             : Восстановление сил
01:13:51.177                             : Дикие грибы
01:18:39.131                             : Второй план
01:24:27.896                             : Побег!
01:30:49.861                             : Ёще ветра
01:34:39.340                             : Травля Омов
01:40:10.129                             : Спасение ребёнка
01:46:06.860                             : Атака могучего война
01:49:44.036                             : Навсикая и Омы
01:52:08.931                             : Возрождение
01:55:04.106                             : Финальные титры
Bit rate mode                            : VBR
MediaInfo 720p Release
Код:
General
Complete name                            : Kaze no tani no Naushika (HD).m4v
Format                                   : MPEG-4
Codec ID                                 : M4V  (M4V /M4A /mp42/isom)
File size                                : 4.99 GiB
Duration                                 : 1h 57mn
Overall bit rate mode                    : Variable
Overall bit rate                         : 6 102 Kbps
Movie name                               : Kaze no tani no Naushika
Performer                                : Hayao Miyazaki
Director                                 : Хаяо Миядзаки
Actor                                    : Суми Симамото / Махито Цудзимура / Хисако Кёда / Горо Ная / Икиро Нагаи / Кохэй Мияути / Дзёдзи Янами / Минору Яда / Рихоко Ёсида / Масако Сугая
Screenplay by                            : Хаяо Миядзаки
Producer                                 : Рик Демпси / Исао Такахата / Тохру Хара
Genre                                    : Anime
ContentType                              : Short Film
Description                              : Из-за беспечности людей Земля лежит в руинах. Джунгли кишат гигантскими насекомыми. Но и с ними надо находить общий язык. Это удается только Навсикае - прелестной юной принцессе.  Начинается война за оставшиеся на Земле природные ресурсы...
Recorded date                            : UTC 1984-03-11 08:00:00
Encoded date                             : UTC 2019-03-17 11:59:14
Tagged date                              : UTC 2019-03-20 20:09:20
Cover                                    : Yes
Rating                                   : None
Title/Sort                               : Nausicaa of the Valley of Wind
LongDescription                          : В будущем человечество, столетиями безоглядно эксплуатировавшее природу, пало жертвой своей гордыни. Землю постигла ужасная экологическая катастрофа, процветающие когда-то промышленные цивилизации обратились в прах, а поверхность планеты покрыло гигантское море Леса, испускающее в атмосферу ядовитые споры своих растений. / Оставшимся в живых людям приходится жить в тени Леса и его чудовищных насекомообразных обитателей, пытаясь не допустить распространения вредоносной растительности. Мирная Долина Ветров - одно из царств, образовавшихся на руинах прежних государств. Жители Долины обожают своего доброго правителя и его дочь Навсикаю, необычную девочку, находящую общий язык с исполинскими насекомыми Леса, странными порождениями нарушенной экосистемы. / Но безмятежное существование Долины Ветров нарушается, когда маленькая страна становится пешкой в играх крупных воинственных соседей, сражающихся за остатки драгоценных природных ресурсов планеты. Тем не менее, скрытому потенциалу Навсикаи ещё предстоит раскрыться, и юной принцессе, возможно, удастся изменить судьбы мира...
HDVideo                                  : Yes
AppleStoreCatalogID                      : 8240
Vendor                                   : Apple:vendor_id:1984-8240
ContentRating                            : ru-movie|12+|200|
Video #1
ID                                       : 1
Format                                   : AVC
Format/Info                              : Advanced Video Codec
Format profile                           : [email protected]
Format settings                          : 3 Ref Frames
Format settings, CABAC                   : No
Format settings, ReFrames                : 3 frames
Codec ID                                 : avc1
Codec ID/Info                            : Advanced Video Coding
Duration                                 : 1h 57mn
Source duration                          : 1h 57mn
Bit rate                                 : 5 000 Kbps
Width                                    : 1 280 pixels
Height                                   : 692 pixels
Display aspect ratio                     : 1.85:1
Frame rate mode                          : Variable
Frame rate                               : 23.976 (24000/1001) fps
Minimum frame rate                       : 23.974 fps
Maximum frame rate                       : 23.981 fps
Color space                              : YUV
Chroma subsampling                       : 4:2:0
Bit depth                                : 8 bits
Scan type                                : Progressive
Bits/(Pixel*Frame)                       : 0.235
Stream size                              : 4.09 GiB (82%)
Source stream size                       : 4.09 GiB (82%)
Title                                    : Main Program
Writing library                          : x264 core 142 r2479 dd79a61
Encoding settings                        : cabac=0 / ref=3 / deblock=1:0:0 / analyse=0x3:0x113 / me=umh / subme=9 / psy=1 / psy_rd=0.80:0.00 / mixed_ref=1 / me_range=32 / chroma_me=1 / trellis=0 / 8x8dct=1 / cqm=0 / deadzone=21,11 / fast_pskip=0 / chroma_qp_offset=-2 / threads=18 / lookahead_threads=1 / sliced_threads=0 / nr=0 / decimate=0 / interlaced=0 / bluray_compat=0 / constrained_intra=0 / bframes=3 / b_pyramid=0 / b_adapt=2 / b_bias=0 / direct=1 / weightb=0 / open_gop=0 / weightp=0 / keyint=240 / keyint_min=24 / scenecut=40 / intra_refresh=0 / rc_lookahead=40 / rc=2pass / mbtree=1 / bitrate=5000 / ratetol=1.0 / qcomp=0.70 / qpmin=0 / qpmax=69 / qpstep=4 / cplxblur=20.0 / qblur=0.5 / vbv_maxrate=9500 / vbv_bufsize=9500 / nal_hrd=none / filler=0 / ip_ratio=1.40 / aq=1:1.10
Language                                 : Japanese
Encoded date                             : UTC 2019-03-17 11:59:14
Tagged date                              : UTC 2019-03-17 11:59:33
Color range                              : Limited
Color primaries                          : BT.709
Transfer characteristics                 : BT.709
Matrix coefficients                      : BT.709
Menus                                    : 14,15
Codec configuration box                  : avcC
Video #2
ID                                       : 15
Format                                   : JPEG
Codec ID                                 : jpeg
Duration                                 : 1h 57mn
Bit rate mode                            : Variable
Bit rate                                 : 1 507 bps
Width                                    : 640 pixels
Height                                   : 346 pixels
Display aspect ratio                     : 1.85:1
Frame rate mode                          : Variable
Frame rate                               : 0.004 fps
Minimum frame rate                       : 0.002 fps
Maximum frame rate                       : 0.008 fps
Color space                              : YUV
Chroma subsampling                       : 4:2:0
Bit depth                                : 8 bits
Compression mode                         : Lossy
Bits/(Pixel*Frame)                       : 1.701
Stream size                              : 1.12 MiB (0%)
Title                                    : Chapter Images
Language                                 : Japanese
Default                                  : No
Encoded date                             : UTC 2019-03-20 20:01:26
Tagged date                              : UTC 2019-03-20 20:01:26
Menu For                                 : 1
ColorSpace_ICC                           : RGB
Audio #1
ID                                       : 2
Format                                   : AAC LC
Format/Info                              : Advanced Audio Codec Low Complexity
Codec ID                                 : mp4a-40-2
Duration                                 : 1h 57mn
Bit rate mode                            : Variable
Bit rate                                 : 125 Kbps
Maximum bit rate                         : 150 Kbps
Channel(s)                               : 2 channels
Channel layout                           : L R
Sampling rate                            : 48.0 KHz
Frame rate                               : 46.875 fps (1024 SPF)
Compression mode                         : Lossy
Stream size                              : 105 MiB (2%)
Title                                    : Russian DUB RUSCICO Stereo
Language                                 : Russian
Default                                  : Yes
Alternate group                          : 1
Encoded date                             : UTC 2019-03-17 11:59:14
Tagged date                              : UTC 2019-03-17 11:59:39
Menus                                    : 14
Audio #2
ID                                       : 3
Format                                   : AAC LC
Format/Info                              : Advanced Audio Codec Low Complexity
Codec ID                                 : mp4a-40-2
Duration                                 : 1h 57mn
Bit rate mode                            : Variable
Bit rate                                 : 136 Kbps
Maximum bit rate                         : 151 Kbps
Channel(s)                               : 2 channels
Channel layout                           : L R
Sampling rate                            : 48.0 KHz
Frame rate                               : 46.875 fps (1024 SPF)
Compression mode                         : Lossy
Stream size                              : 114 MiB (2%)
Title                                    : Russian MVO Kinomaniya Stereo
Language                                 : Russian
Default                                  : No
Alternate group                          : 1
Encoded date                             : UTC 2019-03-17 11:59:14
Tagged date                              : UTC 2019-03-17 11:59:39
Audio #3
ID                                       : 4
Format                                   : AAC LC
Format/Info                              : Advanced Audio Codec Low Complexity
Codec ID                                 : mp4a-40-2
Duration                                 : 1h 57mn
Bit rate mode                            : Variable
Bit rate                                 : 132 Kbps
Maximum bit rate                         : 147 Kbps
Channel(s)                               : 2 channels
Channel layout                           : L R
Sampling rate                            : 48.0 KHz
Frame rate                               : 46.875 fps (1024 SPF)
Compression mode                         : Lossy
Stream size                              : 112 MiB (2%)
Title                                    : Russian DVO Tycoon-studio Stereo
Language                                 : Russian
Default                                  : No
Alternate group                          : 1
Encoded date                             : UTC 2019-03-17 11:59:14
Tagged date                              : UTC 2019-03-17 11:59:39
Audio #4
ID                                       : 5
Format                                   : AAC LC
Format/Info                              : Advanced Audio Codec Low Complexity
Codec ID                                 : mp4a-40-2
Duration                                 : 1h 57mn
Bit rate mode                            : Variable
Bit rate                                 : 136 Kbps
Maximum bit rate                         : 149 Kbps
Channel(s)                               : 2 channels
Channel layout                           : L R
Sampling rate                            : 48.0 KHz
Frame rate                               : 46.875 fps (1024 SPF)
Compression mode                         : Lossy
Stream size                              : 114 MiB (2%)
Title                                    : Russian AVO A.Tolstobrov Stereo
Language                                 : Russian
Default                                  : No
Alternate group                          : 1
Encoded date                             : UTC 2019-03-17 11:59:14
Tagged date                              : UTC 2019-03-17 11:59:39
Audio #5
ID                                       : 6
Format                                   : AAC LC
Format/Info                              : Advanced Audio Codec Low Complexity
Codec ID                                 : mp4a-40-2
Duration                                 : 1h 57mn
Bit rate mode                            : Variable
Bit rate                                 : 144 Kbps
Maximum bit rate                         : 153 Kbps
Channel(s)                               : 2 channels
Channel layout                           : L R
Sampling rate                            : 48.0 KHz
Frame rate                               : 46.875 fps (1024 SPF)
Compression mode                         : Lossy
Stream size                              : 118 MiB (2%)
Title                                    : Russian AVO U.Serbin Stereo
Language                                 : Russian
Default                                  : No
Alternate group                          : 1
Encoded date                             : UTC 2019-03-17 11:59:14
Tagged date                              : UTC 2019-03-17 11:59:39
Audio #6
ID                                       : 7
Format                                   : AAC LC
Format/Info                              : Advanced Audio Codec Low Complexity
Codec ID                                 : mp4a-40-2
Duration                                 : 1h 57mn
Bit rate mode                            : Variable
Bit rate                                 : 118 Kbps
Maximum bit rate                         : 142 Kbps
Channel(s)                               : 2 channels
Channel layout                           : L R
Sampling rate                            : 48.0 KHz
Frame rate                               : 46.875 fps (1024 SPF)
Compression mode                         : Lossy
Stream size                              : 99.2 MiB (2%)
Title                                    : English DUB Stereo
Language                                 : English
Default                                  : No
Alternate group                          : 1
Encoded date                             : UTC 2019-03-17 11:59:14
Tagged date                              : UTC 2019-03-17 11:59:39
Audio #7
ID                                       : 8
Format                                   : AAC LC
Format/Info                              : Advanced Audio Codec Low Complexity
Codec ID                                 : mp4a-40-2
Duration                                 : 1h 57mn
Bit rate mode                            : Variable
Bit rate                                 : 126 Kbps
Maximum bit rate                         : 147 Kbps
Channel(s)                               : 2 channels
Channel layout                           : L R
Sampling rate                            : 48.0 KHz
Frame rate                               : 46.875 fps (1024 SPF)
Compression mode                         : Lossy
Stream size                              : 105 MiB (2%)
Title                                    : Japanese Stereo
Language                                 : Japanese
Default                                  : No
Alternate group                          : 1
Encoded date                             : UTC 2019-03-17 11:59:14
Tagged date                              : UTC 2019-03-17 11:59:39
Audio #8
ID                                       : 9
Format                                   : AAC LC
Format/Info                              : Advanced Audio Codec Low Complexity
Codec ID                                 : mp4a-40-2
Duration                                 : 1h 57mn
Bit rate mode                            : Variable
Bit rate                                 : 164 Kbps
Maximum bit rate                         : 245 Kbps
Channel(s)                               : 2 channels
Channel layout                           : L R
Sampling rate                            : 48.0 KHz
Frame rate                               : 46.875 fps (1024 SPF)
Compression mode                         : Lossy
Stream size                              : 137 MiB (3%)
Title                                    : Commentary with Kazuyoshi Katayama and Hideaki Anno Japanese
Language                                 : Japanese
Default                                  : No
Alternate group                          : 1
Encoded date                             : UTC 2019-03-17 16:56:03
Tagged date                              : UTC 2019-03-17 16:56:08
Text #1
ID                                       : 10
Format                                   : Timed Text
Muxing mode                              : sbtl
Codec ID                                 : tx3g
Duration                                 : 1h 56mn
Bit rate mode                            : Variable
Bit rate                                 : 63 bps
Stream size                              : 54.0 KiB (0%)
Title                                    : Russian from BurniN-SnikerS Subtitle
Language                                 : Russian
Default                                  : Yes
Forced                                   : No
Alternate group                          : 2
Encoded date                             : UTC 2019-03-20 20:01:17
Tagged date                              : UTC 2019-03-20 20:01:17
Text #2
ID                                       : 11
Format                                   : Timed Text
Muxing mode                              : sbtl
Codec ID                                 : tx3g
Duration                                 : 1h 54mn
Bit rate mode                            : Variable
Bit rate                                 : 53 bps
Stream size                              : 44.9 KiB (0%)
Title                                    : Russian from RUSCICO Subtitle
Language                                 : Russian
Default                                  : No
Forced                                   : No
Alternate group                          : 2
Encoded date                             : UTC 2019-03-20 20:01:17
Tagged date                              : UTC 2019-03-20 20:01:17
Text #3
ID                                       : 12
Format                                   : Timed Text
Muxing mode                              : sbtl
Codec ID                                 : tx3g
Duration                                 : 1h 56mn
Bit rate mode                            : Variable
Bit rate                                 : 38 bps
Stream size                              : 32.3 KiB (0%)
Title                                    : English Subtitle
Language                                 : English
Default                                  : No
Forced                                   : No
Alternate group                          : 2
Encoded date                             : UTC 2019-03-20 20:01:17
Tagged date                              : UTC 2019-03-20 20:01:17
Text #4
ID                                       : 13
Format                                   : Timed Text
Muxing mode                              : sbtl
Codec ID                                 : tx3g
Duration                                 : 1h 56mn
Bit rate mode                            : Variable
Bit rate                                 : 123 bps
Stream size                              : 105 KiB (0%)
Title                                    : Russian Commentary with Kazuyoshi Katayama and Hideaki Anno Subtitle
Language                                 : Russian
Default                                  : No
Forced                                   : No
Alternate group                          : 2
Encoded date                             : UTC 2019-03-20 20:01:17
Tagged date                              : UTC 2019-03-20 20:01:17
Menu #1
00:00:00.000                             : Начало
00:01:59.995                             : Начальные титры
00:07:43.046                             : Омы
00:12:10.104                             : Учитель Юпа
00:18:39.452                             : Легенда
00:23:34.747                             : Княжна Растелль
00:28:38.717                             : Военные корабли Торумекия
00:33:30.175                             : Призыв к объединению
00:38:15.251                             : Могучий воин
00:44:57.111                             : Под огнем
00:49:53.032                             : Спасение
00:54:40.611                             : Гнездо Омов
00:58:27.421                             : Cтолкновение с насекомыми
01:01:19.426                             : Очаровательное место
01:07:53.653                             : Восстановление сил
01:13:51.177                             : Дикие грибы
01:18:39.131                             : Второй план
01:24:27.896                             : Побег!
01:30:49.861                             : Ёще ветра
01:34:39.340                             : Травля Омов
01:40:10.129                             : Спасение ребёнка
01:46:06.860                             : Атака могучего война
01:49:44.036                             : Навсикая и Омы
01:52:08.931                             : Возрождение
01:55:04.106                             : Финальные титры
Menu #2
ID                                       : 14
Codec ID                                 : text
Duration                                 : 1h 57mn
Title                                    : Chapter Titles
Language                                 : Russian
Encoded date                             : UTC 2019-03-20 20:01:17
Tagged date                              : UTC 2019-03-20 20:01:17
Menu For                                 : 2,1
00:00:00.000                             : Начало
00:01:59.995                             : Начальные титры
00:07:43.046                             : Омы
00:12:10.104                             : Учитель Юпа
00:18:39.452                             : Легенда
00:23:34.747                             : Княжна Растелль
00:28:38.717                             : Военные корабли Торумекия
00:33:30.175                             : Призыв к объединению
00:38:15.251                             : Могучий воин
00:44:57.111                             : Под огнем
00:49:53.032                             : Спасение
00:54:40.611                             : Гнездо Омов
00:58:27.421                             : Cтолкновение с насекомыми
01:01:19.426                             : Очаровательное место
01:07:53.653                             : Восстановление сил
01:13:51.177                             : Дикие грибы
01:18:39.131                             : Второй план
01:24:27.896                             : Побег!
01:30:49.861                             : Ёще ветра
01:34:39.340                             : Травля Омов
01:40:10.129                             : Спасение ребёнка
01:46:06.860                             : Атака могучего война
01:49:44.036                             : Навсикая и Омы
01:52:08.931                             : Возрождение
01:55:04.106                             : Финальные титры
Bit rate mode                            : VBR
MediaInfo 1080p Release
Код:
General
Complete name                            : Kaze no tani no Naushika (1080p HD).m4v
Format                                   : MPEG-4
Codec ID                                 : M4V  (M4V /M4A /mp42/isom)
File size                                : 10.7 GiB
Duration                                 : 1h 57mn
Overall bit rate mode                    : Variable
Overall bit rate                         : 13.1 Mbps
Movie name                               : Kaze no tani no Naushika
Performer                                : Hayao Miyazaki
Director                                 : Хаяо Миядзаки
Actor                                    : Суми Симамото / Махито Цудзимура / Хисако Кёда / Горо Ная / Икиро Нагаи / Кохэй Мияути / Дзёдзи Янами / Минору Яда / Рихоко Ёсида / Масако Сугая
Screenplay by                            : Хаяо Миядзаки
Producer                                 : Рик Демпси / Исао Такахата / Тохру Хара
Genre                                    : Anime
ContentType                              : Short Film
Description                              : Из-за беспечности людей Земля лежит в руинах. Джунгли кишат гигантскими насекомыми. Но и с ними надо находить общий язык. Это удается только Навсикае - прелестной юной принцессе.  Начинается война за оставшиеся на Земле природные ресурсы...
Recorded date                            : UTC 1984-03-11 08:00:00
Encoded date                             : UTC 2019-03-17 12:01:11
Tagged date                              : UTC 2019-03-20 20:02:36
Cover                                    : Yes
Rating                                   : None
Title/Sort                               : Nausicaa of the Valley of Wind
LongDescription                          : В будущем человечество, столетиями безоглядно эксплуатировавшее природу, пало жертвой своей гордыни. Землю постигла ужасная экологическая катастрофа, процветающие когда-то промышленные цивилизации обратились в прах, а поверхность планеты покрыло гигантское море Леса, испускающее в атмосферу ядовитые споры своих растений. / Оставшимся в живых людям приходится жить в тени Леса и его чудовищных насекомообразных обитателей, пытаясь не допустить распространения вредоносной растительности. Мирная Долина Ветров - одно из царств, образовавшихся на руинах прежних государств. Жители Долины обожают своего доброго правителя и его дочь Навсикаю, необычную девочку, находящую общий язык с исполинскими насекомыми Леса, странными порождениями нарушенной экосистемы. / Но безмятежное существование Долины Ветров нарушается, когда маленькая страна становится пешкой в играх крупных воинственных соседей, сражающихся за остатки драгоценных природных ресурсов планеты. Тем не менее, скрытому потенциалу Навсикаи ещё предстоит раскрыться, и юной принцессе, возможно, удастся изменить судьбы мира...
AppleStoreCatalogID                      : 8240
Vendor                                   : Apple:vendor_id:1984-8240
ContentRating                            : ru-movie|12+|200|
Video #1
ID                                       : 1
Format                                   : AVC
Format/Info                              : Advanced Video Codec
Format profile                           : [email protected]
Format settings                          : CABAC / 4 Ref Frames
Format settings, CABAC                   : Yes
Format settings, ReFrames                : 4 frames
Codec ID                                 : avc1
Codec ID/Info                            : Advanced Video Coding
Duration                                 : 1h 57mn
Source duration                          : 1h 57mn
Bit rate                                 : 12.0 Mbps
Width                                    : 1 920 pixels
Height                                   : 1 036 pixels
Display aspect ratio                     : 1.85:1
Frame rate mode                          : Variable
Frame rate                               : 23.976 (24000/1001) fps
Minimum frame rate                       : 23.974 fps
Maximum frame rate                       : 23.981 fps
Color space                              : YUV
Chroma subsampling                       : 4:2:0
Bit depth                                : 8 bits
Scan type                                : Progressive
Bits/(Pixel*Frame)                       : 0.252
Stream size                              : 9.81 GiB (92%)
Source stream size                       : 9.81 GiB (92%)
Title                                    : Main Program
Writing library                          : x264 core 142 r2479 dd79a61
Encoding settings                        : cabac=1 / ref=4 / deblock=1:0:0 / analyse=0x3:0x133 / me=umh / subme=10 / psy=1 / psy_rd=0.80:0.00 / mixed_ref=1 / me_range=32 / chroma_me=1 / trellis=2 / 8x8dct=1 / cqm=0 / deadzone=21,11 / fast_pskip=0 / chroma_qp_offset=-2 / threads=18 / lookahead_threads=4 / sliced_threads=0 / nr=0 / decimate=0 / interlaced=0 / bluray_compat=0 / constrained_intra=0 / bframes=16 / b_pyramid=2 / b_adapt=2 / b_bias=0 / direct=3 / weightb=1 / open_gop=0 / weightp=2 / keyint=240 / keyint_min=24 / scenecut=40 / intra_refresh=0 / rc_lookahead=60 / rc=2pass / mbtree=1 / bitrate=12000 / ratetol=1.0 / qcomp=0.70 / qpmin=0 / qpmax=69 / qpstep=4 / cplxblur=20.0 / qblur=0.5 / vbv_maxrate=25000 / vbv_bufsize=25000 / nal_hrd=none / filler=0 / ip_ratio=1.40 / aq=1:1.20
Language                                 : Japanese
Encoded date                             : UTC 2019-03-17 12:01:11
Tagged date                              : UTC 2019-03-17 12:01:48
Color range                              : Limited
Color primaries                          : BT.709
Transfer characteristics                 : BT.709
Matrix coefficients                      : BT.709
Menus                                    : 14,15
Codec configuration box                  : avcC
Video #2
ID                                       : 15
Format                                   : JPEG
Codec ID                                 : jpeg
Duration                                 : 1h 57mn
Bit rate mode                            : Variable
Bit rate                                 : 1 487 bps
Width                                    : 640 pixels
Height                                   : 345 pixels
Display aspect ratio                     : 1.85:1
Frame rate mode                          : Variable
Frame rate                               : 0.004 fps
Minimum frame rate                       : 0.002 fps
Maximum frame rate                       : 0.008 fps
Color space                              : YUV
Chroma subsampling                       : 4:2:0
Bit depth                                : 8 bits
Compression mode                         : Lossy
Bits/(Pixel*Frame)                       : 1.684
Stream size                              : 1.11 MiB (0%)
Title                                    : Chapter Images
Language                                 : Japanese
Default                                  : No
Encoded date                             : UTC 2019-03-20 20:00:18
Tagged date                              : UTC 2019-03-20 20:00:19
Menu For                                 : 1
ColorSpace_ICC                           : RGB
Audio #1
ID                                       : 2
Format                                   : AAC LC
Format/Info                              : Advanced Audio Codec Low Complexity
Codec ID                                 : mp4a-40-2
Duration                                 : 1h 57mn
Bit rate mode                            : Variable
Bit rate                                 : 125 Kbps
Maximum bit rate                         : 150 Kbps
Channel(s)                               : 2 channels
Channel layout                           : L R
Sampling rate                            : 48.0 KHz
Frame rate                               : 46.875 fps (1024 SPF)
Compression mode                         : Lossy
Stream size                              : 105 MiB (1%)
Title                                    : Russian DUB RUSCICO Stereo
Language                                 : Russian
Default                                  : Yes
Alternate group                          : 1
Encoded date                             : UTC 2019-03-17 12:01:11
Tagged date                              : UTC 2019-03-17 12:01:55
Menus                                    : 14
Audio #2
ID                                       : 3
Format                                   : AAC LC
Format/Info                              : Advanced Audio Codec Low Complexity
Codec ID                                 : mp4a-40-2
Duration                                 : 1h 57mn
Bit rate mode                            : Variable
Bit rate                                 : 136 Kbps
Maximum bit rate                         : 151 Kbps
Channel(s)                               : 2 channels
Channel layout                           : L R
Sampling rate                            : 48.0 KHz
Frame rate                               : 46.875 fps (1024 SPF)
Compression mode                         : Lossy
Stream size                              : 114 MiB (1%)
Title                                    : Russian MVO Kinomaniya Stereo
Language                                 : Russian
Default                                  : No
Alternate group                          : 1
Encoded date                             : UTC 2019-03-17 12:01:11
Tagged date                              : UTC 2019-03-17 12:01:55
Audio #3
ID                                       : 4
Format                                   : AAC LC
Format/Info                              : Advanced Audio Codec Low Complexity
Codec ID                                 : mp4a-40-2
Duration                                 : 1h 57mn
Bit rate mode                            : Variable
Bit rate                                 : 132 Kbps
Maximum bit rate                         : 147 Kbps
Channel(s)                               : 2 channels
Channel layout                           : L R
Sampling rate                            : 48.0 KHz
Frame rate                               : 46.875 fps (1024 SPF)
Compression mode                         : Lossy
Stream size                              : 112 MiB (1%)
Title                                    : Russian DVO Tycoon-studio Stereo
Language                                 : Russian
Default                                  : No
Alternate group                          : 1
Encoded date                             : UTC 2019-03-17 12:01:11
Tagged date                              : UTC 2019-03-17 12:01:55
Audio #4
ID                                       : 5
Format                                   : AAC LC
Format/Info                              : Advanced Audio Codec Low Complexity
Codec ID                                 : mp4a-40-2
Duration                                 : 1h 57mn
Bit rate mode                            : Variable
Bit rate                                 : 136 Kbps
Maximum bit rate                         : 149 Kbps
Channel(s)                               : 2 channels
Channel layout                           : L R
Sampling rate                            : 48.0 KHz
Frame rate                               : 46.875 fps (1024 SPF)
Compression mode                         : Lossy
Stream size                              : 114 MiB (1%)
Title                                    : Russian AVO A.Tolstobrov Stereo
Language                                 : Russian
Default                                  : No
Alternate group                          : 1
Encoded date                             : UTC 2019-03-17 12:01:11
Tagged date                              : UTC 2019-03-17 12:01:55
Audio #5
ID                                       : 6
Format                                   : AAC LC
Format/Info                              : Advanced Audio Codec Low Complexity
Codec ID                                 : mp4a-40-2
Duration                                 : 1h 57mn
Bit rate mode                            : Variable
Bit rate                                 : 144 Kbps
Maximum bit rate                         : 153 Kbps
Channel(s)                               : 2 channels
Channel layout                           : L R
Sampling rate                            : 48.0 KHz
Frame rate                               : 46.875 fps (1024 SPF)
Compression mode                         : Lossy
Stream size                              : 118 MiB (1%)
Title                                    : Russian AVO U.Serbin Stereo
Language                                 : Russian
Default                                  : No
Alternate group                          : 1
Encoded date                             : UTC 2019-03-17 12:01:11
Tagged date                              : UTC 2019-03-17 12:01:55
Audio #6
ID                                       : 7
Format                                   : AAC LC
Format/Info                              : Advanced Audio Codec Low Complexity
Codec ID                                 : mp4a-40-2
Duration                                 : 1h 57mn
Bit rate mode                            : Variable
Bit rate                                 : 118 Kbps
Maximum bit rate                         : 142 Kbps
Channel(s)                               : 2 channels
Channel layout                           : L R
Sampling rate                            : 48.0 KHz
Frame rate                               : 46.875 fps (1024 SPF)
Compression mode                         : Lossy
Stream size                              : 99.2 MiB (1%)
Title                                    : English DUB Stereo
Language                                 : English
Default                                  : No
Alternate group                          : 1
Encoded date                             : UTC 2019-03-17 12:01:11
Tagged date                              : UTC 2019-03-17 12:01:55
Audio #7
ID                                       : 8
Format                                   : AAC LC
Format/Info                              : Advanced Audio Codec Low Complexity
Codec ID                                 : mp4a-40-2
Duration                                 : 1h 57mn
Bit rate mode                            : Variable
Bit rate                                 : 126 Kbps
Maximum bit rate                         : 147 Kbps
Channel(s)                               : 2 channels
Channel layout                           : L R
Sampling rate                            : 48.0 KHz
Frame rate                               : 46.875 fps (1024 SPF)
Compression mode                         : Lossy
Stream size                              : 105 MiB (1%)
Title                                    : Japanese Stereo
Language                                 : Japanese
Default                                  : No
Alternate group                          : 1
Encoded date                             : UTC 2019-03-17 12:01:11
Tagged date                              : UTC 2019-03-17 12:01:55
Audio #8
ID                                       : 9
Format                                   : AAC LC
Format/Info                              : Advanced Audio Codec Low Complexity
Codec ID                                 : mp4a-40-2
Duration                                 : 1h 57mn
Bit rate mode                            : Variable
Bit rate                                 : 164 Kbps
Maximum bit rate                         : 245 Kbps
Channel(s)                               : 2 channels
Channel layout                           : L R
Sampling rate                            : 48.0 KHz
Frame rate                               : 46.875 fps (1024 SPF)
Compression mode                         : Lossy
Stream size                              : 137 MiB (1%)
Title                                    : Commentary with Kazuyoshi Katayama and Hideaki Anno Japanese
Language                                 : Japanese
Default                                  : No
Alternate group                          : 1
Encoded date                             : UTC 2019-03-17 16:56:00
Tagged date                              : UTC 2019-03-17 16:56:05
Text #1
ID                                       : 10
Format                                   : Timed Text
Muxing mode                              : sbtl
Codec ID                                 : tx3g
Duration                                 : 1h 56mn
Bit rate mode                            : Variable
Bit rate                                 : 63 bps
Stream size                              : 54.0 KiB (0%)
Title                                    : Russian from BurniN-SnikerS Subtitle
Language                                 : Russian
Default                                  : Yes
Forced                                   : No
Alternate group                          : 2
Encoded date                             : UTC 2019-03-20 19:56:03
Tagged date                              : UTC 2019-03-20 19:56:03
Text #2
ID                                       : 11
Format                                   : Timed Text
Muxing mode                              : sbtl
Codec ID                                 : tx3g
Duration                                 : 1h 54mn
Bit rate mode                            : Variable
Bit rate                                 : 53 bps
Stream size                              : 44.9 KiB (0%)
Title                                    : Russian from RUSCICO Subtitle
Language                                 : Russian
Default                                  : No
Forced                                   : No
Alternate group                          : 2
Encoded date                             : UTC 2019-03-20 19:56:50
Tagged date                              : UTC 2019-03-20 19:56:50
Text #3
ID                                       : 12
Format                                   : Timed Text
Muxing mode                              : sbtl
Codec ID                                 : tx3g
Duration                                 : 1h 56mn
Bit rate mode                            : Variable
Bit rate                                 : 38 bps
Stream size                              : 32.3 KiB (0%)
Title                                    : English Subtitle
Language                                 : English
Default                                  : No
Forced                                   : No
Alternate group                          : 2
Encoded date                             : UTC 2019-03-20 19:57:01
Tagged date                              : UTC 2019-03-20 19:57:01
Text #4
ID                                       : 13
Format                                   : Timed Text
Muxing mode                              : sbtl
Codec ID                                 : tx3g
Duration                                 : 1h 56mn
Bit rate mode                            : Variable
Bit rate                                 : 123 bps
Stream size                              : 105 KiB (0%)
Title                                    : Russian Commentary with Kazuyoshi Katayama and Hideaki Anno Subtitle
Language                                 : Russian
Default                                  : No
Forced                                   : No
Alternate group                          : 2
Encoded date                             : UTC 2019-03-20 19:57:33
Tagged date                              : UTC 2019-03-20 19:57:33
Menu #1
00:00:00.000                             : Начало
00:01:59.995                             : Начальные титры
00:07:43.046                             : Омы
00:12:10.104                             : Учитель Юпа
00:18:39.452                             : Легенда
00:23:34.747                             : Княжна Растелль
00:28:38.717                             : Военные корабли Торумекия
00:33:30.175                             : Призыв к объединению
00:38:15.251                             : Могучий воин
00:44:57.111                             : Под огнем
00:49:53.032                             : Спасение
00:54:40.611                             : Гнездо Омов
00:58:27.421                             : Cтолкновение с насекомыми
01:01:19.426                             : Очаровательное место
01:07:53.653                             : Восстановление сил
01:13:51.177                             : Дикие грибы
01:18:39.131                             : Второй план
01:24:27.896                             : Побег!
01:30:49.861                             : Ёще ветра
01:34:39.340                             : Травля Омов
01:40:10.129                             : Спасение ребёнка
01:46:06.860                             : Атака могучего война
01:49:44.036                             : Навсикая и Омы
01:52:08.931                             : Возрождение
01:55:04.106                             : Финальные титры
Menu #2
ID                                       : 14
Codec ID                                 : text
Duration                                 : 1h 57mn
Title                                    : Chapter Titles
Language                                 : Russian
Encoded date                             : UTC 2019-03-20 19:59:57
Tagged date                              : UTC 2019-03-20 19:59:57
Menu For                                 : 2,1
00:00:00.000                             : Начало
00:01:59.995                             : Начальные титры
00:07:43.046                             : Омы
00:12:10.104                             : Учитель Юпа
00:18:39.452                             : Легенда
00:23:34.747                             : Княжна Растелль
00:28:38.717                             : Военные корабли Торумекия
00:33:30.175                             : Призыв к объединению
00:38:15.251                             : Могучий воин
00:44:57.111                             : Под огнем
00:49:53.032                             : Спасение
00:54:40.611                             : Гнездо Омов
00:58:27.421                             : Cтолкновение с насекомыми
01:01:19.426                             : Очаровательное место
01:07:53.653                             : Восстановление сил
01:13:51.177                             : Дикие грибы
01:18:39.131                             : Второй план
01:24:27.896                             : Побег!
01:30:49.861                             : Ёще ветра
01:34:39.340                             : Травля Омов
01:40:10.129                             : Спасение ребёнка
01:46:06.860                             : Атака могучего война
01:49:44.036                             : Навсикая и Омы
01:52:08.931                             : Возрождение
01:55:04.106                             : Финальные титры
Bit rate mode                            : VBR
x264 лог 480p Release
Код:
HandBrakeCLI -i "/1984 Nausicaa Of The Valley Of The Wind/DISC/BDMV/STREAM/00001.m2ts" -t 1 -o Nausicaa.480p.jap.m4v -f mp4 -I -O -w 640 -l 460 --crop 22:22:0:0 --custom-anamorphic --modulus 2 --pixel-aspect 852:640 -e x264 -b 1500 -2 -a none -x cabac=0:ref=2:me=umh:bframes=0:weightp=0:subq=6:8x8dct=0:trellis=0:vbv-maxrate=5000:vbv-bufsize=5000 --verbose=1
x264 [info]: frame I:2795  Avg QP:17.89  size: 39562
x264 [info]: frame P:165565 Avg QP:20.80  size:  7285
x264 [info]: mb I  I16..4: 24.3%  0.0% 75.7%
x264 [info]: mb P  I16..4:  0.4%  0.0%  1.7%  P16..4: 53.0% 18.1%  8.7%  0.0%  0.0%    skip:18.1%
x264 [info]: coded y,uvDC,uvAC intra: 82.9% 81.4% 67.3% inter: 23.1% 21.2% 4.9%
x264 [info]: i16 v,h,dc,p: 34% 15% 23% 27%
x264 [info]: i4 v,h,dc,ddl,ddr,vr,hd,vl,hu: 21% 13% 24%  8%  7%  8%  6%  8%  6%
x264 [info]: i8c dc,h,v,p: 55% 17% 20%  9%
x264 [info]: ref P L0: 63.6% 36.4%
x264 [info]: kb/s:1500.15
x264 лог 720p Release
Код:
HandBrakeCLI -i "/1984 Nausicaa Of The Valley Of The Wind/DISC/BDMV/STREAM/00001.m2ts" -t 1 -o Nausicaa.720p.jap.m4v -f mp4 -4 -O -w 1280 -l 692 --crop 22:22:0:0 --modulus 4 -e x264 -b 5000 -2 -a none -x cabac=0:ref=3:me=umh:b-pyramid=none:b-adapt=2:weightb=0:trellis=0:weightp=0:vbv-maxrate=9500:vbv-bufsize=9500:subq=9:merange=32:deblock=0,0:qcomp=0.70:qpmin=0:qpmax=69:fast_pskip=0:aq-strength=1.1:no-dct-decimate=1:psy-rd=0.80,0.00:ip_ratio=1.30:pb_ratio=1.00 --verbose=1
x264 [info]: frame I:1692  Avg QP:19.30  size:145238
x264 [info]: frame P:54466 Avg QP:22.16  size: 44454
x264 [info]: frame B:112202 Avg QP:22.43  size: 15346
x264 [info]: consecutive B-frames:  3.3% 11.6% 35.8% 49.3%
x264 [info]: mb I  I16..4:  3.1% 70.0% 26.9%
x264 [info]: mb P  I16..4:  0.5%  9.9%  2.0%  P16..4: 49.0% 25.5% 10.2%  0.0%  0.0%    skip: 2.9%
x264 [info]: mb B  I16..4:  0.1%  2.7%  0.2%  B16..8: 47.1% 10.2%  1.5%  direct: 4.7%  skip:33.6%  L0:47.5% L1:48.7% BI: 3.9%
x264 [info]: 8x8 transform intra:81.6% inter:57.1%
x264 [info]: coded y,uvDC,uvAC intra: 95.1% 74.0% 52.0% inter: 30.9% 17.0% 7.4%
x264 [info]: i16 v,h,dc,p: 28% 15% 32% 25%
x264 [info]: i8 v,h,dc,ddl,ddr,vr,hd,vl,hu:  7%  5%  8% 14% 17% 14% 15% 11% 10%
x264 [info]: i4 v,h,dc,ddl,ddr,vr,hd,vl,hu: 19%  7%  4% 13% 15% 13% 12% 10%  8%
x264 [info]: i8c dc,h,v,p: 55% 19% 19%  8%
x264 [info]: ref P L0: 58.4% 24.5% 17.1%
x264 [info]: ref B L0: 71.6% 28.4%
x264 [info]: kb/s:5000.08
x264 лог 1080p Release
Код:
HandBrakeCLI -i "/1984 Nausicaa Of The Valley Of The Wind/DISC/BDMV/STREAM/00001.m2ts" -t 1 -o Nausicaa.1080p.jap.m4v -f mp4 -4 -O -w 1920 -l 1036 --crop 22:22:0:0 --modulus 4 -e x264 -b 12000 -2 -a none -x level=4.1:ref=4:me=umh:bframes=16:direct=auto:rc-lookahead=60:analyse=all:b-adapt=2:trellis=2:vbv-maxrate=25000:vbv-bufsize=25000:subq=10:merange=32:deblock=0,0:qcomp=0.70:qpmin=0:qpmax=69:fast_pskip=0:aq-strength=1.2:no-dct-decimate=1:psy-rd=0.80,0.00:ip_ratio=1.30:pb_ratio=1.00 --verbose=1
x264 [info]: frame I:1095  Avg QP:21.12  size:228736
x264 [info]: frame P:31630 Avg QP:24.21  size: 92366
x264 [info]: frame B:135635 Avg QP:24.52  size: 54272
x264 [info]: consecutive B-frames:  1.4%  1.2%  4.6%  7.8% 11.2% 60.0%  7.3%  1.4%  2.2%  0.7%  0.7%  0.8%  0.2%  0.1%  0.2%  0.1%  0.1%
x264 [info]: mb I  I16..4:  1.5% 95.0%  3.5%
x264 [info]: mb P  I16..4:  0.5% 16.1%  0.5%  P16..4: 45.3% 23.7% 11.8%  0.1%  0.0%    skip: 1.9%
x264 [info]: mb B  I16..4:  0.0%  2.8%  0.0%  B16..8: 46.8% 12.1%  3.1%  direct: 7.5%  skip:27.7%  L0:48.2% L1:48.2% BI: 3.6%
x264 [info]: 8x8 transform intra:95.7% inter:84.5%
x264 [info]: direct mvs  spatial:98.9% temporal:1.1%
x264 [info]: coded y,uvDC,uvAC intra: 95.7% 73.2% 42.6% inter: 45.7% 27.2% 5.3%
x264 [info]: i16 v,h,dc,p: 28% 23% 22% 26%
x264 [info]: i8 v,h,dc,ddl,ddr,vr,hd,vl,hu:  5%  4%  7% 14% 17% 14% 15% 12% 13%
x264 [info]: i4 v,h,dc,ddl,ddr,vr,hd,vl,hu:  8%  6%  2% 11% 17% 15% 16% 12% 14%
x264 [info]: i8c dc,h,v,p: 43% 26% 18% 13%
x264 [info]: Weighted P-Frames: Y:15.0% UV:4.9%
x264 [info]: ref P L0: 51.4% 10.2% 26.6% 10.1%  1.6%  0.0%
x264 [info]: ref B L0: 78.0% 17.3%  4.8%
x264 [info]: ref B L1: 88.4% 11.6%
x264 [info]: kb/s:12000.11
Скриншоты 480p Release
Скриншоты 720p Release
Скриншоты 1080p Release



Релиз подготовлен для просмотра на Apple TV, iPad, iPhone, iPod Touch.
Для просмотра данного релиза на компьютере с ОС Windows рекомендуется использовать VLC media player
Download
Для скачивания .torrent файлов необходима регистрация
Сайт не распространяет и не хранит электронные версии произведений, а лишь предоставляет доступ к создаваемому пользователями каталогу ссылок на торрент-файлы, которые содержат только списки хеш-сумм
[Профиль]  [ЛС] 

Lesnik_Pik

Стаж: 8 лет 10 месяцев

Сообщений: 24

Lesnik_Pik · 03-Апр-11 01:07 (спустя 4 месяца 1 день)

почему в названии написан год 2007?
[Профиль]  [ЛС] 

gooddoor

Стаж: 9 лет 5 месяцев

Сообщений: 7


gooddoor · 04-Апр-11 20:26 (спустя 1 день 19 часов)

интересно, это апскейл или все по честному?
[Профиль]  [ЛС] 

ovsyannikov.ivan

VIP (Заслуженный)

Стаж: 9 лет 4 месяца

Сообщений: 1921

ovsyannikov.ivan · 04-Апр-11 20:39 (спустя 13 мин., ред. 04-Апр-11 20:39)

gooddoor
Ну если судить по второму и третьему скриншотам (с мельницей), то все по честному. Апскейл сразу виден. Вот пример: https://rutracker.org/forum/viewtopic.php?t=2458942
[Профиль]  [ЛС] 

ovsyannikov.ivan

VIP (Заслуженный)

Стаж: 9 лет 4 месяца

Сообщений: 1921

ovsyannikov.ivan · 11-Апр-11 19:43 (спустя 6 дней)

IgoRek_125
Искуственное увеличение разрешения изображения.
[Профиль]  [ЛС] 

ImperialStarDestroyer

Стаж: 10 лет 7 месяцев

Сообщений: 64

ImperialStarDestroyer · 22-Апр-11 00:25 (спустя 10 дней)

Это прекрасно... Восхитительный мульт, получил огромное удовольствие от просмотра. Спасибо вам за видеодорожку.
[Профиль]  [ЛС] 

Barma

Стаж: 13 лет 9 месяцев

Сообщений: 248


Barma · 05-Май-11 23:40 (спустя 13 дней, ред. 05-Май-11 23:40)

ImperialStarDestroyer
Lando Calrissian
У меня "Навсикая из долины ветров" один из любимых мультфильмов. Когда я готовил этот релиз, у меня были сомнения что он будет востребован. Я рад что Вам понравился этот мультфильм!
[Профиль]  [ЛС] 

Lesnik_Pik

Стаж: 8 лет 10 месяцев

Сообщений: 24

Lesnik_Pik · 09-Май-11 16:16 (спустя 3 дня)

Действительно удивительный мульт. 10 из 10
[Профиль]  [ЛС] 

kot_iz_kosmosa

Стаж: 10 лет 4 месяца

Сообщений: 82

kot_iz_kosmosa · 15-Июл-12 02:41 (спустя 1 год 2 месяца)

хочу все мультики студии гибли вообще и миядзаки в частности размером во весь монитор mkv
с одной дорогой чтобы на диск 4,37 влазили каждый. воть.
[Профиль]  [ЛС] 

korvet77

Top Bonus 03* 1TB

Стаж: 9 лет 6 месяцев

Сообщений: 288

korvet77 · 01-Фев-13 00:48 (спустя 6 месяцев)

Barma
Спасибо. Добавил в IMDb Top 250 в Apple TV
[Профиль]  [ЛС] 

Rabbi

Стаж: 10 лет 3 месяца

Сообщений: 479

Rabbi · 18-Янв-15 23:02 (спустя 1 год 11 месяцев)

И тут постер умер
вот новый вариант
[Профиль]  [ЛС] 

yv_apple

Moderator

Стаж: 9 лет

Сообщений: 5684

yv_apple · 22-Мар-19 21:09 (спустя 4 года 2 месяца)

Ну вот, обновлен еще один фильм, аниме фильм!
Все в нуля (видео, звук, сабы). Новые версии 1080p + 720p + 480p.
[Профиль]  [ЛС] 
 
Ответить
Loading...
Error