Заилийский Фавор (Константин Харалампидис) [2009, торжество Православия, DVDRip]

Страницы:  1

Ответить
Автор
Сообщение

royalstag

Top Seed 06* 1280r

Стаж: 9 лет 1 месяц

Сообщений: 1761

royalstag · 26-Май-19 17:53 (28 дней назад)

Заилийский Фавор
Дата/Год выпуска: 2009
Страна: Россия
Жанр: торжество Православия
Продолжительность: 01:09:01
Перевод: Не требуется
Русские субтитры: нет
Оригинальная аудиодорожка: русский
Режиссер: Константин Харалампидис
Описание: Заилийский Фавор — это фильм не только о Вознесенском кафедральном соборе, но и о Новомучениках и Исповедниках, в земле Казахстанской просиявших. Фильм выпущен к пятилетию со дня установления празднования Собора новомучеников и исповедников Казахстанских и рассказывает о судьбах страдальцев за веру Христову, о судьбах Православия на благословенной Казахстанской земле. В годы гонений на Церковь Казахстан стал местом ссылки и заключения для тысяч православных христиан, 207 из них причислены к лику святых. Фильм повествует о судьбах и подвигах невинно убиенных монахов - преподобных Серафиме и Феогносте, о проповедническом пути, который явили казахстанские митрополиты Иосиф и Николай.
Работа над фильмом велась по благословению и при непосредственном участии Главы Митрополичьего округа в Республике Казахстан, Митрополита Астанайского и Алматинского Мефодия. Для всей съемочной группы картина стала событием творческой и духовной жизни. "В течение 12 лет у нас с супругой не было детей. Профессиональный успех не приносил удовлетворения. И вот, спустя много лет мы вернулись в Алматы, на нашу родину... Здесь мы пришли на могилку почитаемого старца Митрополита Иосифа, молились о своей скорби. И у нас родились детки! Это, безусловно, его помощь. Уже тогда я решил, что должен отблагодарить Владыку, и снять фильм о нем. Теперь я выполнил свой долг перед старцем, перед множеством других святых угодников Божьих, которые нашли свое последнее пристанище здесь, в Казахстане» - сказал Константин Харалампидис.
качество: DVDRip
формат: AVI
Видео: MPEG4, DivX 5, 720x544 (4:3), 25.000 fps, 1 948 Kbps (0.199 bit/pixel)
Аудио: MP3, 48.0 KHz, 2 ch, 212 Kbps, VBR
MediaInfo
General
Complete name : C:\Users\User\Downloads\Заилийский Фавор.avi
Format : AVI
Format/Info : Audio Video Interleave
File size : 1.05 GiB
Duration : 1h 9mn
Overall bit rate mode : Variable
Overall bit rate : 2 173 Kbps
Video
ID : 0
Format : MPEG-4 Visual
Format settings, BVOP : 1
Format settings, QPel : No
Format settings, GMC : No warppoints
Format settings, Matrix : Default (H.263)
Codec ID : DX50
Codec ID/Hint : DivX 5
Duration : 1h 9mn
Bit rate : 1 948 Kbps
Width : 720 pixels
Height : 544 pixels
Display aspect ratio : 4:3
Frame rate : 25.000 fps
Color space : YUV
Chroma subsampling : 4:2:0
Bit depth : 8 bits
Scan type : Progressive
Compression mode : Lossy
Bits/(Pixel*Frame) : 0.199
Stream size : 962 MiB (90%)
Writing library : DivX 6.8.5 (UTC 2009-08-20)
Audio
ID : 1
Format : MPEG Audio
Format version : Version 1
Format profile : Layer 3
Mode : Joint stereo
Mode extension : MS Stereo
Codec ID : 55
Codec ID/Hint : MP3
Duration : 1h 9mn
Bit rate mode : Variable
Bit rate : 212 Kbps
Channel(s) : 2 channels
Sampling rate : 48.0 KHz
Compression mode : Lossy
Stream size : 105 MiB (10%)
Alignment : Aligned on interleaves
Interleave, duration : 24 ms (0.60 video frame)
Interleave, preload duration : 539 ms
Скриншоты
Download
Для скачивания .torrent файлов необходима регистрация
Сайт не распространяет и не хранит электронные версии произведений, а лишь предоставляет доступ к создаваемому пользователями каталогу ссылок на торрент-файлы, которые содержат только списки хеш-сумм
[Профиль]  [ЛС] 

royalstag

Top Seed 06* 1280r

Стаж: 9 лет 1 месяц

Сообщений: 1761

royalstag · 26-Май-19 17:58 (спустя 5 мин.)

для модераторов
в этой раздаче следующие характеристики
MI
General
Complete name : C:\Users\User\Desktop\Заилийский Фавор.avi
Format : AVI
Format/Info : Audio Video Interleave
File size : 1.05 GiB
Duration : 1h 9mn
Overall bit rate mode : Variable
Overall bit rate : 2 173 Kbps
Writing application : VirtualDubMod 1.5.4.1 (build 2178/release)
Writing library : VirtualDubMod build 2178/release
Video
ID : 0
Format : MPEG-4 Visual
Format settings, BVOP : 1
Format settings, QPel : No
Format settings, GMC : No warppoints
Format settings, Matrix : Default (H.263)
Muxing mode : Packed bitstream
Codec ID : DX50
Codec ID/Hint : DivX 5
Duration : 1h 9mn
Bit rate : 1 948 Kbps
Width : 720 pixels
Height : 544 pixels
Display aspect ratio : 4:3
Frame rate : 25.000 fps
Color space : YUV
Chroma subsampling : 4:2:0
Bit depth : 8 bits
Scan type : Progressive
Compression mode : Lossy
Bits/(Pixel*Frame) : 0.199
Stream size : 962 MiB (90%)
Writing library : DivX 6.8.5 (UTC 2009-08-20)
Audio
ID : 1
Format : MPEG Audio
Format version : Version 1
Format profile : Layer 3
Mode : Joint stereo
Mode extension : MS Stereo
Codec ID : 55
Codec ID/Hint : MP3
Duration : 1h 9mn
Bit rate mode : Variable
Bit rate : 212 Kbps
Channel(s) : 2 channels
Sampling rate : 48.0 KHz
Compression mode : Lossy
Stream size : 105 MiB (10%)
Alignment : Aligned on interleaves
Interleave, duration : 24 ms (0.60 video frame)
Interleave, preload duration : 539 ms
[Профиль]  [ЛС] 
 
Ответить
Loading...
Error