Ральф против интернета в 3Д / Ralph Breaks the Internet 3D (Фил Джонстон, Рич Мур / Phil Johnston, Rich Moore) [2018, мультфильм, комедия, приключения, семейный, фантастика, BDRip] Half OverUnder / Вертикальная анаморфная стереопара

Страницы:  1

Ответить
Автор
Сообщение

Ash61

Top Seed 04* 320r

Стаж: 10 лет 7 месяцев

Сообщений: 5004

Ash61 · 03-Май-19 00:04 (2 месяца 17 дней назад)


Ральф против интернета
Ralph Breaks the Internet

Год выпуска: 2018
Студия: США
Жанр: мультфильм, комедия, приключения, семейный, фантастика
Продолжительность: 01:52:32
Перевод: Профессиональный дублированный (лицензия)
Режиссеры: Фил Джонстон, Рич Мур / Phil Johnston, Rich Moore
Роли исполняли (дублировали):


Ральф - Джон Си Райли (Станислав Дужников)
Ванилопа - Сара Силверман (Наталия Медведева)
Шэнк - Галь Гадот (Любовь Аксенова)
Yesss - Тараджи П. Хенсон (Ирина Горбачева)
Felix - Джек МакБрайер (Александр Гудков)
Calhoun - Джейн Линч (Регина Щукина)
KnowsMore - Алан Тьюдик (Анатолий Вассерман)
Double Dan - Альфред Молина (Василий Уткин)
Mr. Litwak - Эд О’Нил (Александр Аравушкин)
The Eboy - Шон Джамброун (Глеб Гаврилов)
Maybe - Флула Борг (Юрий Титов)
Butcher Boy - Тимоти С. Саймонс (Денис Некрасов)
----------
Базз Лайтер - Тим Аллен (Станислав Концевич)
Грут - Вин Дизель (Андрей Пирог)
Mo's Mom - Николь Шерзингер (Яна Смирнова)
Покахонтас - Ирен Бедард (Теона Дольникова)
Анна - Кристен Белл (Наталия Быстрова)
Ариэль - Джоди Бенсон (Светлана Светикова)
Моана - Аулии Кравальо (Зина Куприянович)
Золушка - Дженнифер Хейл (Ирина Старшенбаум)
Аврора - Кейт Хиггинс (Карина Сербина)
Жасмин - Линда Ларкин (Зара)
Мерида - Келли Макдоналд (Лиза Арзамасова)
Эльза - Идина Мензел (Анна Бутурлина)
Рапунцель - Мэнди Мур (Виктория Дайнеко)
Бэлль - Пейдж О’Хара (Юлия Довганишина)
Снежная Королева - Памела Рибон (Юлия Чуракова)
Тиана - Аника Нони Роуз (Ляйсан Утяшева)
Мулан - Минг-На (Ксения Ларина)

Описание: На этот раз Ральф и Ванилопа фон Кекс выйдут за пределы зала игровых автоматов и отправятся покорять бескрайние просторы интернета, который может и не выдержать сокрушительного обаяния громилы.
Знаете ли вы, что...
  • Первый полнометражный анимационный фильм, в котором действуют персонажи из проектов всех основных брендов компании Walt Disney Pictures: Walt Disney Animation Studios, Pixar, Marvel и Lucasfilm.
  • Действие сиквела происходит через 6 лет после событий, о которых рассказывается в приквеле «Ральф» (2012).
  • Мэри Коста — единственная дожившая до этого времени актриса, которая не стала вновь озвучивать принцессу Аврору, персонаж мультфильма «Спящая красавица» (1958). Родившаяся в 1930 году актриса и певица наотрез отказалась озвучивать 16-летнюю девушку.
Премьера: 5 ноября 2018 (22 ноября 2018)
Бюджет: $175 000 000
Кассовые сборы: $528 731 855

. .

Качество: BDRip (by Ash61) [исх. - BD 3D Jap]
Контейнер: MKV
Формат 3D: Half OverUnder / Вертикальная анаморфная стереопара
Порядок ракурсов: левый ракурс первый
Видео: AVC / 1920х1080p / 23,976 fps / 9000 Kbps
Аудио:
#1 - Русский / AC3 / 48 KHz / 5.1 ch / 640 Kbps (Дубляж - BD CEE)
#2 - Украинский / AC3 / 48 KHz / 5.1 ch / 640 Kbps (Дубляж) [спасибо Hurtom!]
#3 - Английский / AC3 / 48 KHz / 5.1 ch / 640 Kbps (Original - BD 3D Jap)
Субтитры (SRT):
Вшитые (softsub):
#1 - Русские Форсированные (включены по умолчанию)
#2 - Русские Полные
#3 - Украинские Форсированные [Ash61]
#4 - English Full
#5 - English SDH
Внешние (UTF-8):
#1 - Русские Форсированные (включены по умолчанию)
#2 - Русские Полные
#3 - Украинские Форсированные [Ash61]
MediaInfo
General
Unique ID : 228629151342454664544152970961461404427 (0xAC005F749B5284DB856FDB0BC45B630B)
Complete name : J:\RalphBreaksTheInternet(2018)3D-HOU(Ash61)\RalphBreaksTheInternet(2018)3D-HOU(Ash61).mkv
Format : Matroska
Format version : Version 2
File size : 8.59 GiB
Duration : 1h 52mn
Overall bit rate : 10.9 Mbps
Movie name : Ральф против интернета / Ralph Breaks the Internet (2018) in 3D
Encoded date : UTC 2019-05-02 20:14:22
Writing application : mkvmerge v5.8.0 ('No Sleep / Pillow') built on Sep 2 2012 15:37:04
Writing library : libebml v1.2.3 + libmatroska v1.3.0
Video
ID : 1
Format : AVC
Format/Info : Advanced Video Codec
Format profile : [email protected]
Format settings, CABAC : Yes
Format settings, ReFrames : 4 frames
Codec ID : V_MPEG4/ISO/AVC
Duration : 1h 52mn
Bit rate : 9 000 Kbps
Width : 1 920 pixels
Height : 1 080 pixels
Display aspect ratio : 16:9
Frame rate mode : Constant
Frame rate : 23.976 (24000/1001) fps
Color space : YUV
Chroma subsampling : 4:2:0
Bit depth : 8 bits
Scan type : Progressive
Bits/(Pixel*Frame) : 0.181
Stream size : 6.91 GiB (80%)
Title : BDRip by Ash61 (source - BD 3D Jap)
Writing library : x264 core 146 r2538 121396c
Encoding settings : cabac=1 / ref=4 / deblock=1:-3:-3 / analyse=0x3:0x113 / me=umh / subme=10 / psy=1 / psy_rd=1.00:0.00 / mixed_ref=1 / me_range=32 / chroma_me=1 / trellis=2 / 8x8dct=1 / cqm=0 / deadzone=21,11 / fast_pskip=0 / chroma_qp_offset=-2 / threads=12 / lookahead_threads=2 / sliced_threads=0 / nr=0 / decimate=0 / interlaced=0 / bluray_compat=0 / constrained_intra=0 / bframes=9 / b_pyramid=2 / b_adapt=2 / b_bias=0 / direct=3 / weightb=1 / open_gop=0 / weightp=2 / keyint=250 / keyint_min=23 / scenecut=40 / intra_refresh=0 / rc_lookahead=60 / rc=2pass / mbtree=0 / bitrate=9000 / ratetol=1.0 / qcomp=0.70 / qpmin=0 / qpmax=69 / qpstep=4 / cplxblur=20.0 / qblur=0.5 / vbv_maxrate=40000 / vbv_bufsize=30000 / nal_hrd=none / filler=0 / frame-packing=4 / ip_ratio=1.40 / pb_ratio=1.30 / aq=1:0.70
Language : English
Default : Yes
Forced : No
Audio #1
ID : 2
Format : AC-3
Format/Info : Audio Coding 3
Mode extension : CM (complete main)
Format settings, Endianness : Big
Codec ID : A_AC3
Duration : 1h 52mn
Bit rate mode : Constant
Bit rate : 640 Kbps
Channel(s) : 6 channels
Channel positions : Front: L C R, Side: L R, LFE
Sampling rate : 48.0 KHz
Frame rate : 31.250 fps (1536 spf)
Compression mode : Lossy
Stream size : 515 MiB (6%)
Title : Дубляж (BD CEE)
Language : Russian
Default : Yes
Forced : No
Audio #2
ID : 3
Format : AC-3
Format/Info : Audio Coding 3
Mode extension : CM (complete main)
Format settings, Endianness : Big
Codec ID : A_AC3
Duration : 1h 52mn
Bit rate mode : Constant
Bit rate : 640 Kbps
Channel(s) : 6 channels
Channel positions : Front: L C R, Side: L R, LFE
Sampling rate : 48.0 KHz
Frame rate : 31.250 fps (1536 spf)
Compression mode : Lossy
Stream size : 515 MiB (6%)
Title : Дубляж
Language : Ukrainian
Default : No
Forced : No
Audio #3
ID : 4
Format : AC-3
Format/Info : Audio Coding 3
Mode extension : CM (complete main)
Format settings, Endianness : Big
Codec ID : A_AC3
Duration : 1h 52mn
Bit rate mode : Constant
Bit rate : 640 Kbps
Channel(s) : 6 channels
Channel positions : Front: L C R, Side: L R, LFE
Sampling rate : 48.0 KHz
Frame rate : 31.250 fps (1536 spf)
Compression mode : Lossy
Stream size : 515 MiB (6%)
Title : Original (BD 3D Jap)
Language : English
Default : No
Forced : No
Text #1
ID : 5
Format : UTF-8
Codec ID : S_TEXT/UTF8
Codec ID/Info : UTF-8 Plain Text
Title : Форсированные
Language : Russian
Default : Yes
Forced : No
Text #2
ID : 6
Format : UTF-8
Codec ID : S_TEXT/UTF8
Codec ID/Info : UTF-8 Plain Text
Title : Полные
Language : Russian
Default : No
Forced : No
Text #3
ID : 7
Format : UTF-8
Codec ID : S_TEXT/UTF8
Codec ID/Info : UTF-8 Plain Text
Title : Форсированные [Ash61]
Language : Ukrainian
Default : No
Forced : No
Text #4
ID : 8
Format : UTF-8
Codec ID : S_TEXT/UTF8
Codec ID/Info : UTF-8 Plain Text
Title : Full
Language : English
Default : No
Forced : No
Text #5
ID : 9
Format : UTF-8
Codec ID : S_TEXT/UTF8
Codec ID/Info : UTF-8 Plain Text
Title : SDH
Language : English
Default : No
Forced : No
Menu
00:00:00.000 : :1
00:04:09.666 : :2
00:11:07.417 : :3
00:17:28.923 : :4
00:23:43.881 : :5
00:27:54.589 : :6
00:34:18.807 : :7
00:41:39.956 : :8
00:51:27.709 : :9
00:58:04.606 : :10
01:01:50.957 : :11
01:06:17.306 : :12
01:12:31.806 : :13
01:19:10.120 : :14
01:27:24.030 : :15
01:38:26.775 : :16
Для оценки 3Д - Анимированные скрины



















Download
Для скачивания .torrent файлов необходима регистрация
Сайт не распространяет и не хранит электронные версии произведений, а лишь предоставляет доступ к создаваемому пользователями каталогу ссылок на торрент-файлы, которые содержат только списки хеш-сумм
[Профиль]  [ЛС] 

EKLMN22

Стаж: 10 лет 5 месяцев

Сообщений: 109


EKLMN22 · 05-Май-19 08:36 (спустя 2 дня 8 часов)

Большое спасибо! Классный мультик, забавная смесь современности с темами из классического Диснея. Очень понравился!
[Профиль]  [ЛС] 

vanois

Стаж: 8 лет 9 месяцев

Сообщений: 15


vanois · 05-Май-19 09:15 (спустя 39 мин.)

Ура! Наконец-то в 3D!
Спасибо Ash61!!!
[Профиль]  [ЛС] 

funtic7878

Стаж: 8 лет 7 месяцев

Сообщений: 1


funtic7878 · 05-Май-19 10:38 (спустя 1 час 23 мин.)

ОГРОМНОЕ СПАСИБО!!!!!
[Профиль]  [ЛС] 

_GHS_

Стаж: 7 лет 7 месяцев

Сообщений: 322

_GHS_ · 06-Май-19 19:53 (спустя 1 день 9 часов)

Спасибо за превосходную историю
[Профиль]  [ЛС] 
 
Ответить
Loading...
Error