Хиваро в 3Д / Jivaro 3D (Эдвард Людвиг / Edward Ludwig) [1954, мелодрама, приключения, BDRip, 1080p] OverUnder / Вертикальная стереопара

Страницы:  1

Ответить
Автор
Сообщение

SeRoGa00

Top Seed 02* 80r

Стаж: 9 лет 2 месяца

Сообщений: 754

SeRoGa00 · 07-Апр-19 16:13 (3 месяца 12 дней назад)

Хиваро / Jivaro
Год выпуска: 1954
Страна: США (Paramount Pictures)
Жанр: мелодрама, приключения
Продолжительность: 01:31:52
Перевод: Любительский одноголосый закадровый (Kolobroad (перевод - Igor2138))
Русские субтитры: нет
Режиссер: Эдвард Людвиг / Edward Ludwig
В ролях: Фернандо Ламас, Ронда Флеминг, Брайан Кит, Паскуаль Гарсия Пенья, Морган Фарли, Рита Морено, Ричард Деннинг, Марвин Миллер, Лон Чейни мл., Чарльз Ланг
Описание: В поселке сборщиков каучука, в верховьях Амазонки проживает группа людей, не удовлетворившихся своим положением у себя дома, и мечтающих разбогатеть здесь и вернуться назад важными людьми, с которыми станут считаться. Среди них владелец старого катера и небольшой торговой точки Рио Голдесс. К другому, бывшему американскому инженеру, одержимому поиском сокровищ индейского племени Хиваро, Джерри Расселу, прибывает гламурная американская невеста Алиса Паркер, с намерением выйти замуж за богатого плантатора. Однако тот спивается и живет с местной девушкой Моруа, а плантация существует лишь на страницах его писем. Алисе, чтобы добраться до своего жениха, приходится воспользоваться катером Рио. Между ними завязываются отношения, но приходит известие, что Джерри пропал в землях Хиваро, известных как "охотники за головами". Алиса и Рио, с группой авантюристов, решают отправиться на его поиски в предгорья Анд, в место, называемое "Долиной ветров".
Дополнительная информация по релизу: Реставрация фильма - 3-D Film Archive.
Сэмпл: http://sendfile.su/1487239
Качество: BDrip
Контейнер: MKV
Формат 3D: OverUnder / Вертикальная стереопара
Порядок ракурсов: левый ракурс первый
Видео кодек: x264
Аудио кодек: AC3
Видео: AVC / [email protected] / 23,976 fps / 1920х2160 / 28,0 Мбит/сек
Аудио: Русский / AC3 / 48 KHz / 2.0 ch / 192 Кбит/сек(Kolobroad (перевод - Igor2138))
Аудио 2: Английский / AC3 / 48 KHz / 2.0 ch / 448 Кбит/сек
ВНИМАНИЕ ! На встроенных ТВ-плеерах работать не будет!!!
ТВ Samsung в названии которого есть надпись Ultra HD , и LG Ultra HD 800 серии, LG C6P, Xiaomi Mi TV 2 воспроизводят полные стереопары встроенными плеерами
Железные плееры на которых воспроизводятся полные стереопары:Popcorn C-200 , Dune HD Smart D1 , Dune HD DUO , Dune HD Smart H1 , Dune HD Smart B1 , Dune HD Max , Dune HD TV-303D, Dune HD TV-102, Dune HD Base 3D, Philips HMP7001, Aura HD, MECOOL BB2
Чтобы изображение было на весь экран в плеере выставляем, если рип 1920х1600 - то выставляем 2.35:1 , если 1920х2160 - то выставляем 16:9
MediaInfo
Общее
Уникальный идентификатор : 248172522408245947235637315622836792163 (0xBAB44A0AD8E2DE988DFC9F6B34AA6B63)
Полное имя : E:\фильмы\Jivaro.Rip by SeRoGa00.mkv
Формат : Matroska
Версия формата : Version 2
Размер файла : 18,7 Гбайт
Продолжительность : 1 ч. 31 м.
Общий поток : 29,2 Мбит/сек
Дата кодирования : UTC 2019-04-07 02:14:24
Программа кодирования : mkvmerge v3.4.0 ('Rapunzel') сборка от May 15 2010 09:38:20
Библиотека кодирования : libebml v0.8.0 + libmatroska v0.9.0
Видео
Идентификатор : 1
Формат : AVC
Формат/Информация : Advanced Video Codec
Профиль формата : [email protected]
Параметр CABAC формата : Да
Параметр ReFrames формата : 4 кадра
Идентификатор кодека : V_MPEG4/ISO/AVC
Продолжительность : 1 ч. 31 м.
Битрейт : 28,0 Мбит/сек
Ширина : 1920 пикселей
Высота : 2160 пикселей
Соотношение сторон : 0,889
Частота кадров : 23,976 кадра/сек
Цветовое пространство : YUV
Субдискретизация насыщенности : 4:2:0
Битовая глубина : 8 бит
Тип развёртки : Прогрессивная
Бит/(Пиксели*Кадры) : 0.281
Размер потока : 17,9 Гбайт (96%)
Заголовок : Rip by SeRoGa00
Библиотека кодирования : x264 core 155 r2901 7d0ff22
Настройки программы : cabac=1 / ref=4 / deblock=1:-3:-3 / analyse=0x3:0x113 / me=umh / subme=10 / psy=1 / psy_rd=1.00:0.15 / mixed_ref=1 / me_range=24 / chroma_me=1 / trellis=2 / 8x8dct=1 / cqm=0 / deadzone=21,11 / fast_pskip=1 / chroma_qp_offset=-3 / threads=18 / lookahead_threads=6 / sliced_threads=0 / nr=0 / decimate=0 / interlaced=0 / bluray_compat=0 / constrained_intra=0 / bframes=10 / b_pyramid=2 / b_adapt=2 / b_bias=0 / direct=3 / weightb=1 / open_gop=0 / weightp=2 / keyint=250 / keyint_min=23 / scenecut=40 / intra_refresh=0 / rc_lookahead=60 / rc=crf / mbtree=1 / crf=17.5 / qcomp=0.60 / qpmin=10 / qpmax=69 / qpstep=4 / vbv_maxrate=40000 / vbv_bufsize=40000 / crf_max=0.0 / nal_hrd=none / filler=0 / ip_ratio=1.40 / aq=1:1.00
Язык : English
Default : Нет
Forced : Нет
Аудио #1
Идентификатор : 2
Формат : AC-3
Формат/Информация : Audio Coding 3
Расширение режима : CM (complete main)
Параметр Endianness формата : Big
Идентификатор кодека : A_AC3
Продолжительность : 1 ч. 31 м.
Вид битрейта : Постоянный
Битрейт : 192 Кбит/сек
Каналы : 2 канала
Расположение каналов : Front: L R
Частота : 48,0 КГц
Битовая глубина : 16 бит
Метод сжатия : С потерями
Размер потока : 126 Мбайт (1%)
Язык : Russian
Default : Да
Forced : Нет
Аудио #2
Идентификатор : 3
Формат : AC-3
Формат/Информация : Audio Coding 3
Расширение режима : CM (complete main)
Параметр Endianness формата : Big
Идентификатор кодека : A_AC3
Продолжительность : 1 ч. 31 м.
Вид битрейта : Постоянный
Битрейт : 448 Кбит/сек
Каналы : 2 канала
Расположение каналов : Front: L R
Частота : 48,0 КГц
Битовая глубина : 16 бит
Метод сжатия : С потерями
Размер потока : 294 Мбайт (2%)
Язык : English
Default : Нет
Forced : Нет
Меню
00:00:00.000 : :1
00:07:17.812 : :2
00:17:00.144 : :3
00:25:01.625 : :4
00:34:09.464 : :5
00:43:36.322 : :6
00:52:06.707 : :7
01:00:23.954 : :8
01:08:28.646 : :9
01:19:06.659 : :10
Скриншоты
Download
Для скачивания .torrent файлов необходима регистрация
Сайт не распространяет и не хранит электронные версии произведений, а лишь предоставляет доступ к создаваемому пользователями каталогу ссылок на торрент-файлы, которые содержат только списки хеш-сумм
[Профиль]  [ЛС] 

redclothz1

Стаж: 9 лет 2 месяца

Сообщений: 5


redclothz1 · 08-Апр-19 01:29 (спустя 9 часов)

thanks for the better quality, much needed.
any possible also uploaded "Creature from the Black Lagoon 3D (1954)" iso or high quality, any please, thanks
[Профиль]  [ЛС] 
 
Ответить
Loading...
Error