Муравьиный лев / Жук-скакун / Doodlebug (Кристофер Нолан / Christopher Nolan) [1997, Великобритания, короткометражка, фэнтези, BDRemux 1080i]

Страницы:  1

Ответить
Автор
Сообщение

cedr

Admin gray

Стаж: 11 лет 2 месяца

Сообщений: 32136

cedr · 23-Дек-12 20:40 (6 лет 6 месяцев назад)

Муравьиный лев / Жук-скакун / Doodlebug
Страна: Великобритания
Жанр: короткометражка, фэнтези
Год выпуска: 1997
Продолжительность: 00:02:56
Перевод: Не требуется
Субтитры: нет
Режиссер: Кристофер Нолан / Christopher Nolan
В ролях: Джереми Теобалд
Описание: Первый фильм Кристофера Нолана.
Казалось бы, что может быть необычного в том, что человек пытается убить муравья, но это только на первый взгляд…
Доп. информация:


Сэмпл: http://www.sendspace.com/file/f5jtcm
Тип релиза: BDRemux 1080i
Контейнер: MKV
Видео: H.264, 1920x1080 (16:9), L4.1, 29.970fps, 35Mbps
Аудио: AC3, 48000Hz, 2ch, 192kbps
MediaInfo
Общее
Уникальный идентификатор : 176958585770060034747686680352414576147 (0x8520FBE283E3BEFD8B633C413DF52E13)
Полное имя : D:\Doodlebug 1997 1080i Blu-ray Remux AVC DD 2.0 - KRaLiMaRKo\Doodlebug 1997 1080i Blu-ray Remux AVC DD 2.0 - KRaLiMaRKo.mkv
Формат : Matroska
Версия формата : Version 4 / Version 2
Размер файла : 735 Мбайт
Продолжительность : 2 м. 56 с.
Режим общего битрейта : Переменный
Общий поток : 34,9 Мбит/сек
Название фильма : Doodlebug 1997 1080i Blu-ray Remux AVC DD 2.0 - KRaLiMaRKo
Дата кодирования : UTC 2010-02-22 21:41:31
Программа кодирования : mkvmerge v5.9.0 ('On The Loose') built on Dec 9 2012 15:37:01
Библиотека кодирования : libebml v1.3.0 + libmatroska v1.4.0
Видео
Идентификатор : 1
Формат : AVC
Формат/Информация : Advanced Video Codec
Профиль формата : [email protected]
Параметр CABAC формата : Да
Параметр ReFrames формата : 4 кадра
Параметр GOP формата : M=3, N=24
Идентификатор кодека : V_MPEG4/ISO/AVC
Продолжительность : 2 м. 56 с.
Вид битрейта : Переменный
Битрейт : 34,0 Мбит/сек
Максимальный битрейт : 37,0 Мбит/сек
Ширина : 1920 пикселей
Высота : 1080 пикселей
Соотношение сторон : 16:9
Режим частоты кадров : Постоянный
Частота кадров : 29,970 кадров/сек
Цветовое пространство : YUV
Субдискретизация насыщенности : 4:2:0
Битовая глубина : 8 бит
Тип развёртки : MBAFF
Бит/(Пиксели*Кадры) : 0.547
Размер потока : 716 Мбайт (97%)
Язык : English
Default : Да
Forced : Нет
Аудио
Идентификатор : 2
Формат : AC-3
Формат/Информация : Audio Coding 3
Расширение режима : CM (complete main)
Параметр Endianness формата : Big
Идентификатор кодека : A_AC3
Продолжительность : 2 м. 56 с.
Вид битрейта : Постоянный
Битрейт : 192 Кбит/сек
Каналы : 2 канала
Расположение каналов : Front: L R
Частота : 48,0 КГц
Битовая глубина : 16 бит
Метод сжатия : С потерями
Размер потока : 4,05 Мбайт (1%)
Язык : English
Default : Да
Forced : Нет
Скриншоты
Download
Для скачивания .torrent файлов необходима регистрация
Сайт не распространяет и не хранит электронные версии произведений, а лишь предоставляет доступ к создаваемому пользователями каталогу ссылок на торрент-файлы, которые содержат только списки хеш-сумм
[Профиль]  [ЛС] 

SerJo1

Стаж: 12 лет 2 месяца

Сообщений: 92

SerJo1 · 25-Дек-12 14:49 (спустя 1 день 18 часов)

в сэмпле пол фильма или весь?
[Профиль]  [ЛС] 

cedr

Admin gray

Стаж: 11 лет 2 месяца

Сообщений: 32136

cedr · 25-Дек-12 18:29 (спустя 3 часа)

SerJo1, пятая часть )))
[Профиль]  [ЛС] 

vladosssk

Стаж: 10 лет 7 месяцев

Сообщений: 280

vladosssk · 10-Фев-15 10:14 (спустя 2 года 1 месяц)

Первый фильм был Тарантелла (1989), второй Воровство (1996), этот третий)
[Профиль]  [ЛС] 

Kraken13

Стаж: 10 лет 8 месяцев

Сообщений: 314


Kraken13 · 17-Сен-16 21:24 (спустя 1 год 7 месяцев)

Концовка немного пугает.
[Профиль]  [ЛС] 
 
Ответить
Loading...
Error